Pacific Rim 2 Uprising 2018 720p HC HDRip x264 Dual Audio [Hindi (Cleaned) - English] [MW]

Download via magnet link
Added April 19 2018 in Movies > Action
Verified
Size : 1.13 GB
Seeds : 109 , Peers : 121 updated 2 months ago (new update strongly recommended) Refresh Leechers
Hash code : 1889b06c6629d296c27f842b681c579c61830125


SCREENSHOT





General

Format : Matroska

Format version : Version 4 / Version 2

File size : 1.13 GiB

Duration : 1 h 50 min

Overall bit rate : 1 463 kb/s



Video

ID : 1

Format : AVC

Format/Info : Advanced Video Codec

Format profile : [email protected]

Format settings : CABAC / 4 Ref Frames

Format settings, CABAC : Yes

Format settings, RefFrames : 4 frames

Codec ID : V_MPEG4/ISO/AVC

Duration : 1 h 50 min

Bit rate : 1 250 kb/s

Width : 1 280 pixels

Height : 536 pixels

Display aspect ratio : 2.40:1

Frame rate mode : Constant

Frame rate : 29.970 (30000/1001) FPS

Color space : YUV

Chroma subsampling : 4:2:0

Bit depth : 8 bits

Scan type : Progressive

Bits/(Pixel*Frame) : 0.061

Stream size : 980 MiB (85%)

Writing library : x264 core 155 r2893 b00bcaf

Default : Yes

Forced : No



Audio #1

ID : 2

Format : AAC

Format/Info : Advanced Audio Codec

Format profile : LC

Codec ID : A_AAC-2

Duration : 1 h 50 min

Bit rate : 128 kb/s

Channel(s) : 2 channels

Channel positions : Front: L R

Sampling rate : 48.0 kHz

Frame rate : 46.875 FPS (1024 SPF)

Compression mode : Lossy

Stream size : 101 MiB (9%)

Language : Hindi

Default : No

Forced : No



Audio #2

ID : 3

Format : AAC

Format/Info : Advanced Audio Codec

Format profile : HE-AAC / LC

Format settings : Explicit

Codec ID : A_AAC-2

Duration : 1 h 50 min

Bit rate : 96.0 kb/s

Channel(s) : 2 channels

Channel positions : Front: L R

Sampling rate : 48.0 kHz / 24.0 kHz

Frame rate : 23.438 FPS (1024 SPF)

Compression mode : Lossy

Stream size : 75.0 MiB (6%)

Language : English

Default : No

Forced : No









https://pichub.site/image/J1Kqu

https://pichub.site/image/J1B59

https://pichub.site/image/J1myR

https://pichub.site/image/J1u0s

https://pichub.site/image/J1r8p

Internal Files
1.13 GB Pacific Rim 2 Uprising 2018 720p HC HDRip x264 Dual Audio [Hindi (Cleaned) - English] [MW].mkv

1. udp://9.rarbg.com:2710/announce

2. udp://tracker.opentrackr.org:1337/announce

3. udp://tracker.pirateparty.gr:6969/announce

4. udp://tracker.leechers-paradise.org:6969/announce

5. udp://tracker.coppersurfer.tk:6969/announce

6. udp://tracker.zer0day.to:1337/announce

TOPlist