Dawning Of The Dead 2017 HDRip x264 AAC [MW]

DOWNLOAD TORRENT DOWNLOAD
Download via magnet link
Added April 17 2018 in Movies > Horror
Verified
Size : 790.3 MB
Seeds : 2 , Peers : 3 updated 4 days ago (new update recommended) Refresh Leechers
Hash code : 3413aa10f1ea812e727d4ef03abf0aba3d339e62


SCREENSHOT





General

Format : Matroska

Format version : Version 4 / Version 2

File size : 789 MiB

Duration : 1 h 43 min

Overall bit rate : 1 063 kb/s



Video

ID : 1

Format : AVC

Format/Info : Advanced Video Codec

Format profile : [email protected]

Format settings : CABAC / 4 Ref Frames

Format settings, CABAC : Yes

Format settings, RefFrames : 4 frames

Codec ID : V_MPEG4/ISO/AVC

Duration : 1 h 43 min

Bit rate : 1 000 kb/s

Width : 720 pixels

Height : 304 pixels

Display aspect ratio : 2.35:1

Frame rate mode : Constant

Frame rate : 23.976 (24000/1001) FPS

Color space : YUV

Chroma subsampling : 4:2:0

Bit depth : 8 bits

Scan type : Progressive

Bits/(Pixel*Frame) : 0.191

Stream size : 742 MiB (94%)

Writing library : x264 core 155 r2893 b00bcaf

Default : Yes

Forced : No



Audio

ID : 2

Format : AAC

Format/Info : Advanced Audio Codec

Format profile : HE-AAC / LC

Format settings : Explicit

Codec ID : A_AAC-2

Duration : 1 h 43 min

Bit rate : 62.7 kb/s

Channel(s) : 2 channels

Channel positions : Front: L R

Sampling rate : 48.0 kHz / 24.0 kHz

Frame rate : 23.438 FPS (1024 SPF)

Compression mode : Lossy

Stream size : 46.5 MiB (6%)

Default : Yes

Forced : No









https://pichub.site/image/J3VOI

https://pichub.site/image/J3k68

https://pichub.site/image/J3yfJ

https://pichub.site/image/J3CC5

https://pichub.site/image/J3hrh

Internal Files
789.47 MB Dawning Of The Dead 2017 HDRip x264 AAC [MW].mkv

1. udp://9.rarbg.com:2710/announce

2. udp://tracker.opentrackr.org:1337/announce

3. udp://tracker.pirateparty.gr:6969/announce

4. udp://tracker.leechers-paradise.org:6969/announce

5. udp://tracker.coppersurfer.tk:6969/announce

6. udp://tracker.zer0day.to:1337/announce

name size seeds peers added
Dawning.Of.The.Dead.2017.HDRip.XviD.AC3-EVO[EtMovies] posted in movies > misc 1.41 GB 32 21 5 days
TOPlist