Rideshare 2018 HDRip x264 AAC [MW]

DOWNLOAD TORRENT DOWNLOAD
Download via magnet link
Added April 17 2018 in Movies > Thriller
Verified
Size : 774.3 MB
Seeds : 3 , Peers : 3 updated 4 days ago (new update recommended) Refresh Leechers
Hash code : 7e201f811cef9b9a42cf89b00693dbec433d2ca4


SCREENSHOT





General

Format : Matroska

Format version : Version 4 / Version 2

File size : 774 MiB

Duration : 1 h 42 min

Overall bit rate : 1 059 kb/s



Video

ID : 1

Format : AVC

Format/Info : Advanced Video Codec

Format profile : [email protected]

Format settings : CABAC / 4 Ref Frames

Format settings, CABAC : Yes

Format settings, RefFrames : 4 frames

Codec ID : V_MPEG4/ISO/AVC

Duration : 1 h 42 min

Bit rate : 1 000 kb/s

Width : 714 pixels

Height : 304 pixels

Display aspect ratio : 2.35:1

Frame rate mode : Constant

Frame rate : 23.976 (24000/1001) FPS

Color space : YUV

Chroma subsampling : 4:2:0

Bit depth : 8 bits

Scan type : Progressive

Bits/(Pixel*Frame) : 0.192

Stream size : 727 MiB (94%)

Writing library : x264 core 155 r2893 b00bcaf

Default : Yes

Forced : No



Audio

ID : 2

Format : AAC

Format/Info : Advanced Audio Codec

Format profile : HE-AAC / LC

Format settings : Explicit

Codec ID : A_AAC-2

Duration : 1 h 42 min

Bit rate : 62.7 kb/s

Channel(s) : 2 channels

Channel positions : Front: L R

Sampling rate : 48.0 kHz / 24.0 kHz

Frame rate : 23.438 FPS (1024 SPF)

Compression mode : Lossy

Stream size : 45.8 MiB (6%)

Default : Yes

Forced : No









https://pichub.site/image/JsXdk

https://pichub.site/image/Jss3v

https://pichub.site/image/Js189

https://pichub.site/image/JsZId

https://pichub.site/image/Js9lu



Internal Files
773.64 MB Rideshare 2018 HDRip x264 AAC [MW].mkv

1. udp://9.rarbg.com:2710/announce

2. udp://tracker.opentrackr.org:1337/announce

3. udp://tracker.pirateparty.gr:6969/announce

4. udp://tracker.leechers-paradise.org:6969/announce

5. udp://tracker.coppersurfer.tk:6969/announce

6. udp://tracker.zer0day.to:1337/announce

No related torrents found!

TOPlist