Red Sparrow 2018 HC 720p HDRip Eng Audio KorSub With Sample LLG

DOWNLOAD TORRENT DOWNLOAD
Download via magnet link
Added April 16 2018 in Movies > Drama
Verified
Size : 1.38 GB
Seeds : 0 , Peers : 1 updated 5 days ago (new update recommended) Refresh Leechers
Hash code : d003d5a46c770768522d6988b4c6ead574163e49
SCREENSHOT



SCREENSHOT



******************************Thumbnail:**********************



SCREENSHOT



******************************Screenshots:********************



Screenshot 1



Screenshot 2



Screenshot 3



Screenshot 4



Screenshot 5



Screenshot 6



Screenshot 7



Screenshot 8



Screenshot 9



Screenshot 0



**************************************************************



Complete name : Red.Sparrow.2018.HC.720p.HDRip.Eng.Audio.KorSub.With.Sample.LLG.mp4

Format : MPEG-4

Format profile : Base Media

Codec ID : isom (isom/iso2/avc1/mp41)

File size : 1.37 GiB

Duration : 2 h 15 min

Overall bit rate : 1 445 kb/s

Writing application : Lavf57.56.101



Video

ID : 1

Format : AVC

Format/Info : Advanced Video Codec

Format profile : [email protected]

Format settings : CABAC / 4 Ref Frames

Format settings, CABAC : Yes

Format settings, RefFrames : 4 frames

Codec ID : avc1

Codec ID/Info : Advanced Video Coding

Duration : 2 h 15 min

Bit rate : 1 200 kb/s

Width : 1 904 pixels

Height : 800 pixels

Display aspect ratio : 2.40:1

Frame rate mode : Constant

Frame rate : 29.970 (29970/1000) FPS

Color space : YUV

Chroma subsampling : 4:2:0

Bit depth : 8 bits

Scan type : Progressive

Bits/(Pixel*Frame) : 0.026

Stream size : 1.12 GiB (82%)



Audio

ID : 2

Format : AC-3

Format/Info : Audio Coding 3

Codec ID : ac-3

Duration : 2 h 15 min

Bit rate mode : Constant

Bit rate : 256 kb/s

Channel(s) : 2 channels

Channel positions : Front: L R

Sampling rate : 48.0 kHz

Frame rate : 31.250 FPS (1536 SPF)

Bit depth : 16 bits

Compression mode : Lossy

Stream size : 249 MiB (18%)

Language : English

Service kind : Complete Main

Default : Yes

Alternate group : 1
Internal Files
5.54 MB Sample.ts

1.37 GB Red.Sparrow.2018.HC.720p.HDRip.Eng.Audio.KorSub.With.Sample.LLG.mp4

1. udp://9.rarbg.com:2710/announce

2. udp://tracker.opentrackr.org:1337/announce

3. udp://tracker.pirateparty.gr:6969/announce

4. udp://tracker.leechers-paradise.org:6969/announce

5. udp://tracker.coppersurfer.tk:6969/announce

6. udp://tracker.zer0day.to:1337/announce

TOPlist