Shandas River 2018 HDRip x264 AAC [MW]

DOWNLOAD TORRENT DOWNLOAD
Download via magnet link
Added April 15 2018 in Movies > Horror
Verified
Size : 705.3 MB
Seeds : 2 , Peers : 3 updated 6 days ago (new update recommended) Refresh Leechers
Hash code : 3d8f96e5a4687c18801608f82c38c8cf6a37d4db


SCREENSHOT







General

Format : Matroska

Format version : Version 4 / Version 2

File size : 705 MiB

Duration : 1 h 31 min

Overall bit rate : 1 081 kb/s



Video

ID : 1

Format : AVC

Format/Info : Advanced Video Codec

Format profile : [email protected]

Format settings : CABAC / 4 Ref Frames

Format settings, CABAC : Yes

Format settings, RefFrames : 4 frames

Codec ID : V_MPEG4/ISO/AVC

Duration : 1 h 31 min

Bit rate : 1 000 kb/s

Width : 720 pixels

Height : 400 pixels

Display aspect ratio : 16:9

Frame rate mode : Constant

Frame rate : 25.000 FPS

Color space : YUV

Chroma subsampling : 4:2:0

Bit depth : 8 bits

Scan type : Progressive

Bits/(Pixel*Frame) : 0.139

Stream size : 642 MiB (91%)

Writing library : x264 core 155 r2893 b00bcaf

Default : Yes

Forced : No



Audio

ID : 2

Format : AAC

Format/Info : Advanced Audio Codec

Format profile : HE-AAC / LC

Format settings : Explicit

Codec ID : A_AAC-2

Duration : 1 h 31 min

Bit rate : 96.0 kb/s

Channel(s) : 2 channels

Channel positions : Front: L R

Sampling rate : 48.0 kHz / 24.0 kHz

Frame rate : 23.438 FPS (1024 SPF)

Compression mode : Lossy

Stream size : 61.7 MiB (9%)

Language : English

Default : Yes

Forced : No









https://pichub.site/image/JnjY8

https://pichub.site/image/Js425

https://pichub.site/image/Jsfjh

https://pichub.site/image/JsMkj

https://pichub.site/image/JsYxr

https://pichub.site/image/JsaTk

Internal Files
704.86 MB Shandas River 2018 HDRip x264 AAC [MW].mkv

1. udp://9.rarbg.com:2710/announce

2. udp://tracker.opentrackr.org:1337/announce

3. udp://tracker.pirateparty.gr:6969/announce

4. udp://tracker.leechers-paradise.org:6969/announce

5. udp://tracker.coppersurfer.tk:6969/announce

6. udp://tracker.zer0day.to:1337/announce

name size seeds peers added
Shandas River 2018.HDRip.XviD.AC3-EVO posted in movies > misc 1.38 GB 13 32 6 days
Shandas River 2018.HDRip.XviD.AC3-EVO[EtMovies] posted in movies > misc 1.38 GB 8 22 1 week
TOPlist