Mukkabaaz 2018 HD 720p Hindi GOPISAHI

DOWNLOAD TORRENT DOWNLOAD
Download via magnet link
Added April 15 2018 in Movies > Drama
Verified
Size : 657.3 MB
Seeds : 1 , Peers : 0 updated 6 days ago (new update recommended) Refresh Leechers
Hash code : 5b714d2510c2013a2eed471f490c60b3af6c5485
SCREENSHOT

Format : Matroska

Format version : Version 4 / Version 2

File size : 656 MiB

Duration : 2 h 35 min

Overall bit rate : 590 kb/s

Movie name : Mukkabaaz 2018 GOPISAHI



Video

Format : AVC

Codec ID : V_MPEG4/ISO/AVC

Duration : 2 h 35 min

Bit rate : 500 kb/s

Width : 1 280 pixels

Height : 544 pixels

Display aspect ratio : 2.35:1

Frame rate mode : Constant

Frame rate : 24.000 FPS

Stream size : 556 MiB (85%)

Title : GOPISAHI

Writing library : x264 core 155 r2893 b00bcaf



Audio

Format : AAC

Duration : 2 h 35 min

Bit rate : 88.6 kb/s

Channel(s) : 6 channels

Channel positions : Front: L C R, Side: L R, LFE

Sampling rate : 44.1 kHz

Frame rate : 43.066 FPS (1024 SPF)

Compression mode : Lossy

Stream size : 98.5 MiB (15%)

Title : GOPISAHI

Language : Hindi

SCREENSHOT

SCREENSHOT

SCREENSHOT``
Internal Files
656.36 MB Mukkabaaz 2018 HD 720p Hindi GOPISAHI.mkv

1. udp://9.rarbg.com:2710/announce

2. udp://tracker.opentrackr.org:1337/announce

3. udp://tracker.pirateparty.gr:6969/announce

4. udp://tracker.leechers-paradise.org:6969/announce

5. udp://tracker.coppersurfer.tk:6969/announce

6. udp://tracker.zer0day.to:1337/announce

name size seeds peers added
Mukkabaaz 2018 Hindi 720p Pre-DVDRip x264 AAC posted in movies > action 1.19 GB 133 122 3 months
Mukkabaaz 2018 720p WEBRip x264 ESub [MW] posted in movies > action 1.4 GB 4 12 6 days
TOPlist