Super Singh 2017 HDRIP Punjabi GOPISAHI

DOWNLOAD TORRENT DOWNLOAD
Download via magnet link
Added April 14 2018 in Movies > Adventure
Verified
Size : 493.65 MB
Seeds : 1 , Peers : 0 updated 1 week ago (new update strongly recommended) Refresh Leechers
Hash code : ff744cfcff80e3e151cd22264bc1a02368673eda
SCREENSHOT

Format : Matroska

Format version : Version 4 / Version 2

File size : 493 MiB

Duration : 1 h 55 min

Overall bit rate : 597 kb/s

Movie name : Super Singh 2017 HDRIP Punjabi GOPISAHI



Video

Format : AVC

Codec ID : V_MPEG4/ISO/AVC

Duration : 1 h 55 min

Bit rate : 500 kb/s

Width : 720 pixels

Height : 408 pixels

Display aspect ratio : 16:9

Frame rate mode : Constant

Frame rate : 25.000 FPS

Stream size : 413 MiB (84%)

Title : GOPISAHI

Writing library : x264 core 155 r2893 b00bcaf



Audio

Format : AAC

Duration : 1 h 55 min

Bit rate : 96.0 kb/s

Channel(s) : 6 channels

Channel positions : Front: L C R, Side: L R, LFE

Sampling rate : 44.1 kHz

Frame rate : 43.066 FPS (1024 SPF)

Compression mode : Lossy

Stream size : 78.7 MiB (16%)

Title : GOPISAHI

Language : Panjabi

SCREENSHOT

SCREENSHOT

SCREENSHOT
Internal Files
493.2 MB Super Singh 2017 HDRIP Punjabi GOPISAHI.mkv

1. udp://9.rarbg.com:2710/announce

2. udp://tracker.opentrackr.org:1337/announce

3. udp://tracker.pirateparty.gr:6969/announce

4. udp://tracker.leechers-paradise.org:6969/announce

5. udp://tracker.coppersurfer.tk:6969/announce

6. udp://tracker.zer0day.to:1337/announce

No related torrents found!

TOPlist