The Exorcism of Emily Rose (2005).XviD.italian.english.Ac3-5.1.sub.ita.eng.MIRCrew

DOWNLOAD TORRENT DOWNLOAD
Download via magnet link
Added April 12 2018 in Movies > Horror
Verified
Size : 1.07 GB
Seeds : 2 , Peers : 5 updated 1 week ago (new update strongly recommended) Refresh Leechers
Hash code : 1c55e210d1126e5d25a2a3b22c48f80391d4b820
The Exorcism of Emily Rose (2005).XviD.italian.english.Ac3-5.1.sub.ita.eng.MIRCrew



SCREENSHOT

NO FOUND ONLY ORIGINAL RELEASE



SCREENSHOT





My release is always in double track audio italian and Original audio

for select it use VLC or dvd player home

not use wmp



The Exorcism of Emily Rose (2005)



SCREENSHOT



SCREENSHOT



SCREENSHOT



Titolo originale The Exorcism of Emily Rose

Lingua originale inglese

Paese di produzione Stati Uniti d'America

Anno 2005

Durata 119 min (versione originale)

Genere orrore

Regia Scott Derrickson

Sceneggiatura Paul Harris Boardman, Scott Derrickso



SCREENSHOT



Laura Linney: Erin Bruner

Tom Wilkinson: Padre Richard Moore

Campbell Scott: Ethan Thomas

Jennifer Carpenter: Emily Rose

Shohreh Aghdashloo: Dr.ssa Sadira Adani

JR Bourne: Ray

Joshua Close: Jason

Henry Czerny Dr. Briggs

Aaron Douglas:Assistente del Procuratore

Colm Feore: Karl Gunderson

Lorena Gale: Presidente della giuria

Mary Beth Hurt: Giudice Brewster



SCREENSHOT



Emily Rose è una studentessa di diciannove anni, proveniente da una famiglia povera e molto religiosa. Quando vince una borsa di studio, Emily può realizzare il suo sogno ed andare al college. Una notte, mentre si trova da sola nel proprio dormitorio, Emily viene svegliata da un forte odore di bruciato proveniente dal corridoio e, quando esce a controllare, vede la porta principale aprirsi e chiudersi da sola diverse volte



SCREENSHOT



A lawyer takes on a negligent homicide case involving a priest who performed an exorcism on a young girl. ........



SCREENSHOT



SCREENSHOT

SCREENSHOT

SCREENSHOT

SCREENSHOT





SCREENSHOT



[spoiler]

General

Complete name : The Exorcism of Emily Rose (2005).ita.eng.sub.ita.eng.MIRCrewThe Exorcism of Emily Rose (2005).ita.eng.sub.ita.eng.MIRCrew.avi

Format : AVI

Format/Info : Audio Video Interleave

File size : 1.07 GiB

Duration : 1h 54mn

Overall bit rate : 1 334 Kbps

Writing application : VirtualDubMod 1.5.10.2 (build 2540/release)

Writing library : VirtualDubMod build 2540/release



Video

ID : 0

Format : MPEG-4 Visual

Format profile : Advanced [email protected]

Format settings, BVOP : 2

Format settings, QPel : No

Format settings, GMC : No warppoints

Format settings, Matrix : Default (H.263)

Codec ID : DIVX

Codec ID/Info : Project Mayo

Codec ID/Hint : DivX 4

Duration : 1h 54mn

Bit rate : 552 Kbps

Width : 720 pixels

Height : 288 pixels

Display aspect ratio : 2.500

Frame rate : 25.000 fps

Color space : YUV

Chroma subsampling : 4:2:0

Bit depth : 8 bits

Scan type : Progressive

Compression mode : Lossy

Bits/(Pixel*Frame) : 0.106

Stream size : 452 MiB (41%)

Writing library : XviD 64



Audio #1

ID : 1

Format : AC-3

Format/Info : Audio Coding 3

Mode extension : CM (complete main)

Codec ID : 2000

Duration : 1h 54mn

Bit rate mode : Constant

Bit rate : 384 Kbps

Channel(s) : 6 channels

Channel positions : Front: L C R, Side: L R, LFE

Sampling rate : 48.0 KHz

Bit depth : 16 bits

Compression mode : Lossy

Stream size : 315 MiB (29%)

Alignment : Split accross interleaves

Interleave, duration : 40 ms (1.00 video frame)

Interleave, preload duration : 500 ms



Audio #2

ID : 2

Format : AC-3

Format/Info : Audio Coding 3

Mode extension : CM (complete main)

Codec ID : 2000

Duration : 1h 54mn

Bit rate mode : Constant

Bit rate : 384 Kbps

Channel(s) : 6 channels

Channel positions : Front: L C R, Side: L R, LFE

Sampling rate : 48.0 KHz

Bit depth : 16 bits

Compression mode : Lossy

Stream size : 315 MiB (29%)

Alignment : Split accross interleaves

Interleave, duration : 40 ms (1.00 video frame)

Interleave, preload duration : 500 ms







[/spoiler]


Internal Files
53 Byte MIRCrew-ilCorSaRoNeRo.txt

1.07 GB The Exorcism of Emily Rose (2005).ita.eng.sub.ita.eng.MIRCrew.avi

109.46 KB The Exorcism of Emily Rose (2005).ita.eng.sub.ita.eng.MIRCrew.eng.sub

113 KB The Exorcism of Emily Rose (2005).ita.eng.sub.ita.eng.MIRCrew.ita.sub

1.32 KB The Exorcism of Emily Rose (2005).ita.eng.sub.ita.eng.MIRCrew.sub

1. udp://9.rarbg.com:2710/announce

2. udp://tracker.opentrackr.org:1337/announce

3. udp://tracker.pirateparty.gr:6969/announce

4. udp://tracker.leechers-paradise.org:6969/announce

5. udp://tracker.coppersurfer.tk:6969/announce

6. udp://tracker.zer0day.to:1337/announce

TOPlist