Gremlin 2017 DVDRip AAC 2 0 x264 [MW]

DOWNLOAD TORRENT DOWNLOAD
Download via magnet link
Added April 11 2018 in Movies > Horror
Verified
Size : 651.3 MB
Seeds : 2 , Peers : 2 updated 1 week ago (new update strongly recommended) Refresh Leechers
Hash code : d75def3fec15fa503d1a24f3032e88b17985263e


SCREENSHOT





Format : Matroska

Format version : Version 4 / Version 2

File size : 651 MiB

Duration : 1 h 25 min

Overall bit rate : 1 065 kb/s



Video

ID : 1

Format : AVC

Format/Info : Advanced Video Codec

Format profile : [email protected]

Format settings : CABAC / 4 Ref Frames

Format settings, CABAC : Yes

Format settings, RefFrames : 4 frames

Codec ID : V_MPEG4/ISO/AVC

Duration : 1 h 25 min

Bit rate : 1 000 kb/s

Width : 720 pixels

Height : 300 pixels

Display aspect ratio : 2.40:1

Frame rate mode : Constant

Frame rate : 25.000 FPS

Color space : YUV

Chroma subsampling : 4:2:0

Bit depth : 8 bits

Scan type : Progressive

Bits/(Pixel*Frame) : 0.185

Stream size : 611 MiB (94%)

Writing library : x264 core 155 r2893 b00bcaf

Default : Yes

Forced : No



Audio

ID : 2

Format : AAC

Format/Info : Advanced Audio Codec

Format profile : HE-AAC / LC

Format settings : Explicit

Codec ID : A_AAC-2

Duration : 1 h 25 min

Bit rate : 62.7 kb/s

Channel(s) : 2 channels

Channel positions : Front: L R

Sampling rate : 48.0 kHz / 24.0 kHz

Frame rate : 23.438 FPS (1024 SPF)

Compression mode : Lossy

Stream size : 38.3 MiB (6%)

Language : English

Default : Yes

Forced : No











https://pichub.site/image/J5XEX

https://pichub.site/image/J5s3J

https://pichub.site/image/J595j

https://pichub.site/image/J5Za5

https://pichub.site/image/J518h

https://pichub.site/image/J5Hqr

Internal Files
650.55 MB Gremlin 2017 DVDRip AAC 2.0 x264 [MW].mkv

1. udp://9.rarbg.com:2710/announce

2. udp://tracker.opentrackr.org:1337/announce

3. udp://tracker.pirateparty.gr:6969/announce

4. udp://tracker.leechers-paradise.org:6969/announce

5. udp://tracker.coppersurfer.tk:6969/announce

6. udp://tracker.zer0day.to:1337/announce

name size seeds peers added
Gremlin.2017.DVDRip.x264-SPOOKS[EtMovies] posted in movies > misc 413 MB 5 13 1 week
Gremlin.2017.DVDRip.x264-SPOOKS[N1C] posted in movies > misc 419.2 MB 2 16 1 week
TOPlist