+18 Hansel and Gretel Witch Hunters 2013 720p Esub BluRay Dual Audio English Hindi GOPISAHI

DOWNLOAD TORRENT DOWNLOAD
Download via magnet link
Added April 11 2018 in Movies > Adventure
Verified
Size : 621.3 MB
Seeds : 2 , Peers : 0 updated 1 week ago (new update strongly recommended) Refresh Leechers
Hash code : 8658024795cfbcd8d9af733a44927e1f5af44730
SCREENSHOT

Format : Matroska

Format version : Version 4 / Version 2

File size : 620 MiB

Duration : 1 h 37 min

Overall bit rate : 885 kb/s

Movie name : Hansel and Gretel Witch Hunters 2013 GOPISAHI



Video

Format : AVC

Codec ID : V_MPEG4/ISO/AVC

Duration : 1 h 37 min

Bit rate : 700 kb/s

Width : 1 280 pixels

Height : 528 pixels

Display aspect ratio : 2.40:1

Frame rate mode : Constant

Frame rate : 23.976 (24000/1001) FPS

Color space : YUV

Chroma subsampling : 4:2:0

Bit depth : 8 bits

Scan type : Progressive

Bits/(Pixel*Frame) : 0.043

Stream size : 490 MiB (79%)

Title : GOPISAHI

Writing library : x264 core 148 r2708 86b7198



Audio #1

Format : AAC

Duration : 1 h 37 min

Bit rate : 87.8 kb/s

Channel(s) : 6 channels

Channel positions : Front: L C R, Side: L R, LFE

Sampling rate : 44.1 kHz

Frame rate : 43.066 FPS (1024 SPF)

Compression mode : Lossy

Stream size : 61.5 MiB (10%)

Title : GOPISAHI

Language : English



Audio #2

Format : AAC

Duration : 1 h 37 min

Bit rate : 96.0 kb/s

Channel(s) : 6 channels

Channel positions : Front: L C R, Side: L R, LFE

Sampling rate : 48.0 kHz

Frame rate : 46.875 FPS (1024 SPF)

Compression mode : Lossy

Delay relative to video : 1 s 0 ms

Stream size : 66.4 MiB (11%)

Title : GOPISAHI

Language : Hindi



Text

Language : English

SCREENSHOT

SCREENSHOT

SCREENSHOT
Internal Files
620.21 MB +18 Hansel and Gretel Witch Hunters 2013 720p Esub BluRay Dual Audio English Hindi GOPISAHI.mkv

1. udp://9.rarbg.com:2710/announce

2. udp://tracker.opentrackr.org:1337/announce

3. udp://tracker.pirateparty.gr:6969/announce

4. udp://tracker.leechers-paradise.org:6969/announce

5. udp://tracker.coppersurfer.tk:6969/announce

6. udp://tracker.zer0day.to:1337/announce

TOPlist