Escape Plan 2013 720p Esub BluRay Dual Audio English Hindi GOPISAHI

DOWNLOAD TORRENT DOWNLOAD
Download via magnet link
Added April 10 2018 in Movies > Adventure
Verified
Size : 638.3 MB
Seeds : 1 , Peers : 0 updated 1 week ago (new update strongly recommended) Refresh Leechers
Hash code : 9d6c6518557e04f1f8410c4fd3a1a772a1af8bff
SCREENSHOT



Escape Plan 2013 720p Esub BluRay Dual Audio English Hindi GOPISAHI



Format : Matroska

Format version : Version 4 / Version 2

File size : 638 MiB

Duration : 1 h 55 min

Overall bit rate : 771 kb/s



Video

Format : AVC

Codec ID : V_MPEG4/ISO/AVC

Duration : 1 h 55 min

Bit rate : 600 kb/s

Width : 1 280 pixels

Height : 534 pixels

Display aspect ratio : 2.40:1

Frame rate mode : Constant

Frame rate : 23.976 (24000/1001) FPS

Stream size : 495 MiB (78%)

Title : GOPISAHI

Writing library : x264 core 148 r2708 86b7198



Audio #1

Format : AAC

Duration : 1 h 55 min

Bit rate : 83.0 kb/s

Channel(s) : 6 channels

Channel positions : Front: L C R, Side: L R, LFE

Sampling rate : 44.1 kHz

Frame rate : 43.066 FPS (1024 SPF)

Compression mode : Lossy

Stream size : 68.6 MiB (11%)

Title : GOPISAHI

Language : English



Audio #2

Format : AAC

Duration : 1 h 55 min

Bit rate : 86.6 kb/s

Channel(s) : 6 channels

Channel positions : Front: L C R, Side: L R, LFE

Sampling rate : 44.1 kHz

Frame rate : 43.066 FPS (1024 SPF)

Compression mode : Lossy

Stream size : 71.6 MiB (11%)

Title : GOPISAHI

Language : Hindi



Text

Language : English

SCREENSHOT

SCREENSHOT

SCREENSHOT
Internal Files
637.85 MB Escape Plan 2013 720p Esub BluRay Dual Audio English Hindi GOPISAHI.mkv

1. udp://9.rarbg.com:2710/announce

2. udp://tracker.opentrackr.org:1337/announce

3. udp://tracker.pirateparty.gr:6969/announce

4. udp://tracker.leechers-paradise.org:6969/announce

5. udp://tracker.coppersurfer.tk:6969/announce

6. udp://tracker.zer0day.to:1337/announce

TOPlist