Monsters At Large 2018 HDRip AC3 5.1 x264 [MW]

Download via magnet link
Added March 13 2018 in Movies > Misc
Verified
Size : 798.3 MB
Seeds : 3 , Peers : 11 updated 3 months ago (new update strongly recommended) Refresh Leechers
Hash code : 2e6690edd168b545882c18b338c7fcd42d4e7519


SCREENSHOT


General


Format : Matroska


Format version : Version 4 / Version 2


File size : 798 MiB


Duration : 1 h 31 min


Overall bit rate : 1 219 kb/s



Video


ID : 1


Format : AVC


Format/Info : Advanced Video Codec


Format profile : [email protected]
Format settings : CABAC / 4 Ref Frames


Format settings, CABAC : Yes


Format settings, RefFrames : 4 frames


Codec ID : V_MPEG4/ISO/AVC


Duration : 1 h 31 min


Bit rate : 1 000 kb/s


Width : 720 pixels


Height : 404 pixels


Display aspect ratio : 16:9


Frame rate mode : Constant


Frame rate : 23.976 (24000/1001) FPS


Color space : YUV


Chroma subsampling : 4:2:0


Bit depth : 8 bits


Scan type : Progressive


Bits/(Pixel*Frame) : 0.143


Stream size : 650 MiB (81%)


Writing library : x264 core 148 r2708 86b7198


Default : Yes


Forced : No



Audio


ID : 2


Format : AC-3


Format/Info : Audio Coding 3


Codec ID : A_AC3


Duration : 1 h 31 min


Bit rate mode : Constant


Bit rate : 224 kb/s


Channel(s) : 6 channels


Channel positions : Front: L C R, Side: L R, LFE


Sampling rate : 48.0 kHz


Frame rate : 31.250 FPS (1536 SPF)


Bit depth : 16 bits


Compression mode : Lossy


Stream size : 147 MiB (18%)


Language : English


Service kind : Complete Main


Default : Yes


Forced : No








SCREENSHOT
SCREENSHOT
SCREENSHOT
SCREENSHOT
SCREENSHOT
SCREENSHOT
Internal Files
797.65 MB Monsters At Large 2018 HDRip AC3 5.1 x264.mkv

1. udp://9.rarbg.com:2710/announce

2. udp://tracker.opentrackr.org:1337/announce

3. udp://tracker.pirateparty.gr:6969/announce

4. udp://tracker.leechers-paradise.org:6969/announce

5. udp://tracker.coppersurfer.tk:6969/announce

6. udp://tracker.zer0day.to:1337/announce

name size seeds peers added
Monsters At Large 2018.HDRip.XviD.AC3-EVO[EtMovies] posted in movies > misc 1.36 GB 26 29 3 months
Monsters At Large 2018.HDRip.XviD.AC3-EVO[N1C] posted in movies > misc 1.36 GB 9 18 3 months
Monsters At Large 2018.HDRip.XviD.AC3-EVO posted in movies > misc 1.36 GB 9 46 3 months
TOPlist