Annihilation 2018 720p WEB-DL DD 5 1 x264 ESubs

Download via magnet link
Added March 12 2018 in Movies > Adventure
Verified
Size : 1.15 GB
Seeds : 3 , Peers : 11 updated 3 months ago (new update strongly recommended) Refresh Leechers
Hash code : 81f1fa1bceb48f1df0d50758b1d07be3f4957ef4


SCREENSHOT







General

Format : Matroska

Format version : Version 4 / Version 2

File size : 1.15 GiB

Duration : 1 h 55 min

Overall bit rate : 1 421 kb/s



Video

ID : 27

Format : AVC

Format/Info : Advanced Video Codec

Format profile : [email protected]

Format settings : CABAC / 4 Ref Frames

Format settings, CABAC : Yes

Format settings, RefFrames : 4 frames

Codec ID : V_MPEG4/ISO/AVC

Duration : 1 h 55 min

Bit rate : 1 200 kb/s

Width : 1 280 pixels

Height : 536 pixels

Display aspect ratio : 2.40:1

Frame rate mode : Constant

Frame rate : 23.976 (24000/1001) FPS

Color space : YUV

Chroma subsampling : 4:2:0

Bit depth : 8 bits

Scan type : Progressive

Bits/(Pixel*Frame) : 0.073

Stream size : 986 MiB (84%)

Writing library : x264 core 148 r2708 86b7198

Default : Yes

Forced : No



Audio

ID : 28

Format : AC-3

Format/Info : Audio Coding 3

Codec ID : A_AC3

Duration : 1 h 55 min

Bit rate mode : Constant

Bit rate : 224 kb/s

Channel(s) : 6 channels

Channel positions : Front: L C R, Side: L R, LFE

Sampling rate : 48.0 kHz

Frame rate : 31.250 FPS (1536 SPF)

Bit depth : 16 bits

Compression mode : Lossy

Stream size : 185 MiB (16%)

Language : English

Service kind : Complete Main

Default : Yes

Forced : No





Text #1

ID : 1

Format : UTF-8

Codec ID : S_TEXT/UTF8

Codec ID/Info : UTF-8 Plain Text

Duration : 1 h 46 min

Bit rate : 34 b/s

Count of elements : 940

Stream size : 27.1 KiB (0%)

Language : English

Default : Yes

Forced : No



Text #2

ID : 2

Format : UTF-8

Codec ID : S_TEXT/UTF8

Codec ID/Info : UTF-8 Plain Text

Duration : 1 h 47 min

Bit rate : 40 b/s

Count of elements : 1098

Stream size : 32.2 KiB (0%)

Title : SDH

Language : English

Default : No

Forced : No



Text #3

ID : 3

Format : UTF-8

Codec ID : S_TEXT/UTF8

Codec ID/Info : UTF-8 Plain Text

Duration : 1 h 49 min

Bit rate : 53 b/s

Count of elements : 924

Stream size : 43.3 KiB (0%)

Language : Arabic

Default : No

Forced : No



Text #4

ID : 4

Format : UTF-8

Codec ID : S_TEXT/UTF8

Codec ID/Info : UTF-8 Plain Text

Duration : 1 h 46 min

Bit rate : 29 b/s

Count of elements : 879

Stream size : 22.8 KiB (0%)

Language : Danish

Default : No

Forced : No



Text #5

ID : 5

Format : UTF-8

Codec ID : S_TEXT/UTF8

Codec ID/Info : UTF-8 Plain Text

Duration : 1 h 49 min

Bit rate : 30 b/s

Count of elements : 919

Stream size : 24.8 KiB (0%)

Language : German

Default : No

Forced : No



Text #6

ID : 6

Format : UTF-8

Codec ID : S_TEXT/UTF8

Codec ID/Info : UTF-8 Plain Text

Duration : 1 h 46 min

Bit rate : 56 b/s

Count of elements : 914

Stream size : 43.9 KiB (0%)

Language : Greek

Default : No

Forced : No



Text #7

ID : 7

Format : UTF-8

Codec ID : S_TEXT/UTF8

Codec ID/Info : UTF-8 Plain Text

Duration : 1 h 46 min

Bit rate : 30 b/s

Count of elements : 914

Stream size : 23.5 KiB (0%)

Language : Spanish

Default : No

Forced : No



Text #8

ID : 8

Format : UTF-8

Codec ID : S_TEXT/UTF8

Codec ID/Info : UTF-8 Plain Text

Duration : 1 h 49 min

Bit rate : 29 b/s

Count of elements : 885

Stream size : 23.8 KiB (0%)

Title : European

Language : Spanish

Default : No

Forced : No



Text #9

ID : 9

Format : UTF-8

Codec ID : S_TEXT/UTF8

Codec ID/Info : UTF-8 Plain Text

Duration : 1 h 46 min

Bit rate : 26 b/s

Count of elements : 860

Stream size : 20.5 KiB (0%)

Language : Finnish

Default : No

Forced : No



Text #10

ID : 10

Format : UTF-8

Codec ID : S_TEXT/UTF8

Codec ID/Info : UTF-8 Plain Text

Duration : 1 h 46 min

Bit rate : 30 b/s

Count of elements : 881

Stream size : 24.1 KiB (0%)

Language : French

Default : No

Forced : No



Text #11

ID : 11

Format : UTF-8

Codec ID : S_TEXT/UTF8

Codec ID/Info : UTF-8 Plain Text

Duration : 1 h 46 min

Bit rate : 47 b/s

Count of elements : 918

Stream size : 37.3 KiB (0%)

Language : Hebrew

Default : No

Forced : No



Text #12

ID : 12

Format : UTF-8

Codec ID : S_TEXT/UTF8

Codec ID/Info : UTF-8 Plain Text

Duration : 1 h 46 min

Bit rate : 81 b/s

Count of elements : 922

Stream size : 63.7 KiB (0%)

Language : Hindi

Default : No

Forced : No



Text #13

ID : 13

Format : UTF-8

Codec ID : S_TEXT/UTF8

Codec ID/Info : UTF-8 Plain Text

Duration : 1 h 47 min

Bit rate : 29 b/s

Count of elements : 878

Stream size : 23.2 KiB (0%)

Language : Italian

Default : No

Forced : No



Text #14

ID : 14

Format : UTF-8

Codec ID : S_TEXT/UTF8

Codec ID/Info : UTF-8 Plain Text

Duration : 1 h 49 min

Bit rate : 25 b/s

Count of elements : 979

Stream size : 20.6 KiB (0%)

Language : Japanese

Default : No

Forced : No



Text #15

ID : 15

Format : UTF-8

Codec ID : S_TEXT/UTF8

Codec ID/Info : UTF-8 Plain Text

Duration : 1 h 47 min

Bit rate : 36 b/s

Count of elements : 923

Stream size : 28.9 KiB (0%)

Language : Korean

Default : No

Forced : No



Text #16

ID : 16

Format : UTF-8

Codec ID : S_TEXT/UTF8

Codec ID/Info : UTF-8 Plain Text

Duration : 1 h 46 min

Bit rate : 30 b/s

Count of elements : 901

Stream size : 23.7 KiB (0%)

Language : Norwegian Bokmal

Default : No

Forced : No



Text #17

ID : 17

Format : UTF-8

Codec ID : S_TEXT/UTF8

Codec ID/Info : UTF-8 Plain Text

Duration : 1 h 46 min

Bit rate : 27 b/s

Count of elements : 785

Stream size : 21.6 KiB (0%)

Language : Dutch

Default : No

Forced : No



Text #18

ID : 18

Format : UTF-8

Codec ID : S_TEXT/UTF8

Codec ID/Info : UTF-8 Plain Text

Duration : 1 h 49 min

Bit rate : 29 b/s

Count of elements : 920

Stream size : 23.5 KiB (0%)

Language : Polish

Default : No

Forced : No



Text #19

ID : 19

Format : UTF-8

Codec ID : S_TEXT/UTF8

Codec ID/Info : UTF-8 Plain Text

Duration : 1 h 46 min

Bit rate : 30 b/s

Count of elements : 905

Stream size : 24.1 KiB (0%)

Language : Portuguese

Default : No

Forced : No



Text #20

ID : 20

Format : UTF-8

Codec ID : S_TEXT/UTF8

Codec ID/Info : UTF-8 Plain Text

Duration : 1 h 47 min

Bit rate : 31 b/s

Count of elements : 893

Stream size : 25.0 KiB (0%)

Title : Brazilian

Language : Portuguese

Default : No

Forced : No



Text #21

ID : 21

Format : UTF-8

Codec ID : S_TEXT/UTF8

Codec ID/Info : UTF-8 Plain Text

Duration : 1 h 46 min

Bit rate : 32 b/s

Count of elements : 900

Stream size : 25.2 KiB (0%)

Language : Romanian

Default : No

Forced : No



Text #22

ID : 22

Format : UTF-8

Codec ID : S_TEXT/UTF8

Codec ID/Info : UTF-8 Plain Text

Duration : 1 h 46 min

Bit rate : 29 b/s

Count of elements : 896

Stream size : 23.1 KiB (0%)

Language : Swedish

Default : No

Forced : No



Text #23

ID : 23

Format : UTF-8

Codec ID : S_TEXT/UTF8

Codec ID/Info : UTF-8 Plain Text

Duration : 1 h 46 min

Bit rate : 79 b/s

Count of elements : 921

Stream size : 62.3 KiB (0%)

Language : Thai

Default : No

Forced : No



Text #24

ID : 24

Format : UTF-8

Codec ID : S_TEXT/UTF8

Codec ID/Info : UTF-8 Plain Text

Duration : 1 h 47 min

Bit rate : 31 b/s

Count of elements : 927

Stream size : 24.5 KiB (0%)

Language : Turkish

Default : No

Forced : No



Text #25

ID : 25

Format : UTF-8

Codec ID : S_TEXT/UTF8

Codec ID/Info : UTF-8 Plain Text

Duration : 1 h 46 min

Bit rate : 30 b/s

Count of elements : 922

Stream size : 23.8 KiB (0%)

Title : Simplified

Language : Chinese

Default : No

Forced : No



Text #26

ID : 26

Format : UTF-8

Codec ID : S_TEXT/UTF8

Codec ID/Info : UTF-8 Plain Text

Duration : 1 h 47 min

Bit rate : 28 b/s

Count of elements : 924

Stream size : 22.3 KiB (0%)

Title : Traditional

Language : Chinese

Default : No

Forced : No









https://pichub.site/image/fP0R8

https://pichub.site/image/fPrP5

https://pichub.site/image/fPLKJ

https://pichub.site/image/fPpJh

https://pichub.site/image/fP2hj



Internal Files
1.15 GB Annihilation 2018 720p WEB-DL DD 5.1 x264 ESubs.mkv

1. udp://9.rarbg.com:2710/announce

2. udp://tracker.opentrackr.org:1337/announce

3. udp://tracker.pirateparty.gr:6969/announce

4. udp://tracker.leechers-paradise.org:6969/announce

5. udp://tracker.coppersurfer.tk:6969/announce

6. udp://tracker.zer0day.to:1337/announce

No related torrents found!

TOPlist