Annihilation 2018 1080p WEB-DL DD 5 1 x264 ESubs

Download via magnet link
Added March 12 2018 in Movies > Adventure
Verified
Size : 1.92 GB
Seeds : 1 , Peers : 12 updated 3 months ago (new update strongly recommended) Refresh Leechers
Hash code : 58caa592025455c8e57505d113aebbdfe9b14d44


SCREENSHOT







General

Format : Matroska

Format version : Version 4 / Version 2

File size : 1.92 GiB

Duration : 1 h 55 min

Overall bit rate : 2 378 kb/s



Video

ID : 1

Format : AVC

Format/Info : Advanced Video Codec

Format profile : [email protected]

Format settings : CABAC / 4 Ref Frames

Format settings, CABAC : Yes

Format settings, RefFrames : 4 frames

Codec ID : V_MPEG4/ISO/AVC

Duration : 1 h 55 min

Bit rate : 2 000 kb/s

Width : 1 920 pixels

Height : 804 pixels

Display aspect ratio : 2.40:1

Frame rate mode : Constant

Frame rate : 23.976 (24000/1001) FPS

Color space : YUV

Chroma subsampling : 4:2:0

Bit depth : 8 bits

Scan type : Progressive

Bits/(Pixel*Frame) : 0.054

Stream size : 1.61 GiB (84%)

Writing library : x264 core 148 r2708 86b7198

Default : Yes

Forced : No



Audio

ID : 2

Format : AC-3

Format/Info : Audio Coding 3

Codec ID : A_AC3

Duration : 1 h 55 min

Bit rate mode : Constant

Bit rate : 384 kb/s

Channel(s) : 6 channels

Channel positions : Front: L C R, Side: L R, LFE

Sampling rate : 48.0 kHz

Frame rate : 31.250 FPS (1536 SPF)

Bit depth : 16 bits

Compression mode : Lossy

Stream size : 317 MiB (16%)

Language : English

Service kind : Complete Main

Default : Yes

Forced : No



Text #1

ID : 3

Format : UTF-8

Codec ID : S_TEXT/UTF8

Codec ID/Info : UTF-8 Plain Text

Duration : 1 h 46 min

Bit rate : 34 b/s

Count of elements : 940

Stream size : 27.1 KiB (0%)

Language : English

Default : Yes

Forced : No



Text #2

ID : 4

Format : UTF-8

Codec ID : S_TEXT/UTF8

Codec ID/Info : UTF-8 Plain Text

Duration : 1 h 47 min

Bit rate : 40 b/s

Count of elements : 1098

Stream size : 32.2 KiB (0%)

Title : SDH

Language : English

Default : No

Forced : No



Text #3

ID : 5

Format : UTF-8

Codec ID : S_TEXT/UTF8

Codec ID/Info : UTF-8 Plain Text

Duration : 1 h 49 min

Bit rate : 53 b/s

Count of elements : 924

Stream size : 43.3 KiB (0%)

Language : Arabic

Default : No

Forced : No



Text #4

ID : 6

Format : UTF-8

Codec ID : S_TEXT/UTF8

Codec ID/Info : UTF-8 Plain Text

Duration : 1 h 46 min

Bit rate : 29 b/s

Count of elements : 879

Stream size : 22.8 KiB (0%)

Language : Danish

Default : No

Forced : No



Text #5

ID : 7

Format : UTF-8

Codec ID : S_TEXT/UTF8

Codec ID/Info : UTF-8 Plain Text

Duration : 1 h 49 min

Bit rate : 30 b/s

Count of elements : 919

Stream size : 24.8 KiB (0%)

Language : German

Default : No

Forced : No







https://pichub.site/image/fPJCr

https://pichub.site/image/fPMrk

https://pichub.site/image/fPYQQ

https://pichub.site/image/fPI7v

https://pichub.site/image/fPONd

https://pichub.site/image/fPDOu

Internal Files
1.92 GB Annihilation 2018 1080p WEB-DL DD 5.1 x264 ESubs.mkv

1. udp://9.rarbg.com:2710/announce

2. udp://tracker.opentrackr.org:1337/announce

3. udp://tracker.pirateparty.gr:6969/announce

4. udp://tracker.leechers-paradise.org:6969/announce

5. udp://tracker.coppersurfer.tk:6969/announce

6. udp://tracker.zer0day.to:1337/announce

name size seeds peers added
Annihilation 2018 1080p NF WEB-DL AAC LLG posted in movies > adventure 1.69 GB 1 1 3 months
TOPlist