Dinotopia 2002 720p x264 Esub BluRay Dual Audio English Hindi GOPISAHI

Download via magnet link
Added March 11 2018 in Movies > Adventure
Verified
Size : 486.65 MB
Seeds : 1 , Peers : 2 updated 3 months ago (new update strongly recommended) Refresh Leechers
Hash code : e2dbbc8066db37691a77e4f16444aea033b21850
SCREENSHOT

Format : Matroska

Format version : Version 4 / Version 2

File size : 486 MiB

Duration : 1 h 28 min

Overall bit rate : 771 kb/s

Movie name : Dinotopia 2002 GOPISAHI



Video

Format : AVC

Codec ID : V_MPEG4/ISO/AVC

Duration : 1 h 28 min

Bit rate : 600 kb/s

Width : 1 280 pixels

Height : 720 pixels

Display aspect ratio : 16:9

Frame rate mode : Constant

Frame rate : 23.976 (24000/1001) FPS

Stream size : 378 MiB (78%)

Title : GOPISAHI

Writing library : x264 core 155 r2893 b00bcaf



Audio #1

Format : AAC

Duration : 1 h 28 min

Bit rate : 80.6 kb/s

Channel(s) : 6 channels

Channel positions : Front: L C R, Side: L R, LFE

Sampling rate : 44.1 kHz

Frame rate : 43.066 FPS (1024 SPF)

Compression mode : Lossy

Stream size : 50.8 MiB (10%)

Title : GOPISAHI

Language : English



Audio #2

Format : AAC

Duration : 1 h 28 min

Bit rate : 88.1 kb/s

Channel(s) : 6 channels

Channel positions : Front: L C R, Side: L R, LFE

Sampling rate : 44.1 kHz

Frame rate : 43.066 FPS (1024 SPF)

Compression mode : Lossy

Stream size : 55.6 MiB (11%)

Title : GOPISAHI

Language : Hindi



Text

Language : English

SCREENSHOT

SCREENSHOT

SCREENSHOT
Internal Files
486.24 MB Dinotopia 2002 720p x264 Esub BluRay Dual Audio English Hindi GOPISAHI.mkv

1. udp://9.rarbg.com:2710/announce

2. udp://tracker.opentrackr.org:1337/announce

3. udp://tracker.pirateparty.gr:6969/announce

4. udp://tracker.leechers-paradise.org:6969/announce

5. udp://tracker.coppersurfer.tk:6969/announce

6. udp://tracker.zer0day.to:1337/announce

TOPlist