Paddington 2 2017 1080p BluRay AC3 5 1 x264 ESub

Download via magnet link
Added March 9 2018 in Movies > Adventure
Verified
Size : 1.42 GB
Seeds : 1 , Peers : 3 updated 3 months ago (new update strongly recommended) Refresh Leechers
Hash code : 3f64739059ebf4bbe3c47625c487eb72accf498c


SCREENSHOT





General

Format : Matroska

Format version : Version 4 / Version 2

File size : 1.42 GiB

Duration : 1 h 43 min

Overall bit rate : 1 970 kb/s



Video

ID : 1

Format : AVC

Format/Info : Advanced Video Codec

Format profile : [email protected]

Format settings : CABAC / 4 Ref Frames

Format settings, CABAC : Yes

Format settings, RefFrames : 4 frames

Codec ID : V_MPEG4/ISO/AVC

Duration : 1 h 43 min

Bit rate : 1 800 kb/s

Width : 1 920 pixels

Height : 804 pixels

Display aspect ratio : 2.40:1

Frame rate mode : Constant

Frame rate : 24.000 FPS

Color space : YUV

Chroma subsampling : 4:2:0

Bit depth : 8 bits

Scan type : Progressive

Bits/(Pixel*Frame) : 0.049

Stream size : 1.28 GiB (90%)

Writing library : x264 core 148 r2708 86b7198

Default : Yes

Forced : No



Audio

ID : 2

Format : AC-3

Format/Info : Audio Coding 3

Codec ID : A_AC3

Duration : 1 h 43 min

Bit rate mode : Constant

Bit rate : 192 kb/s

Channel(s) : 6 channels

Channel positions : Front: L C R, Side: L R, LFE

Sampling rate : 48.0 kHz

Frame rate : 31.250 FPS (1536 SPF)

Bit depth : 16 bits

Compression mode : Lossy

Stream size : 142 MiB (10%)

Language : English

Service kind : Complete Main

Default : Yes

Forced : No



Text

ID : 3

Format : UTF-8

Codec ID : S_TEXT/UTF8

Codec ID/Info : UTF-8 Plain Text

Duration : 1 h 39 min

Bit rate : 77 b/s

Count of elements : 1873

Stream size : 56.3 KiB (0%)

Language : English

Default : Yes

Forced : No











https://pichub.site/image/fpGtk

https://pichub.site/image/fpUev

https://pichub.site/image/fpNpQ

https://pichub.site/image/fp0v9

https://pichub.site/image/fpxkd

https://pichub.site/image/fpLHu

Internal Files
1.42 GB Paddington 2 2017 1080p BluRay AC3 5.1 x264 ESub.mkv

1. udp://9.rarbg.com:2710/announce

2. udp://tracker.opentrackr.org:1337/announce

3. udp://tracker.pirateparty.gr:6969/announce

4. udp://tracker.leechers-paradise.org:6969/announce

5. udp://tracker.coppersurfer.tk:6969/announce

6. udp://tracker.zer0day.to:1337/announce

name size seeds peers added
Paddington 2 (2017) [WEBRip] [1080p] [YTS AM] posted in movies > animation 1.65 GB 2273 2194 3 months
Paddington 2 2017 1080p WEB-DL DD 5 1 x264 posted in movies > animation 1.5 GB 2 11 3 months
Paddington 2 2017 DTS ITA ENG 1080p BluRay x264-BLUWORLD mkv posted in movies > adventure 9.1 GB 1 0 3 months
TOPlist