15 17 To Paris 2018 CAM Clean English Audio LLG

DOWNLOAD TORRENT DOWNLOAD
Download via magnet link
Added February 14 2018 in Movies > Drama
Verified
Size : 1.01 GB
Seeds : 0 , Peers : 5 updated 3 months ago (new update strongly recommended) Refresh Leechers
Hash code : d25a4841b09001c60dc6ce95f9c4202200ceb40c
******************************Thumbnail:**********************



SCREENSHOT



******************************Screenshots:********************



Screenshot 1



Screenshot 2



Screenshot 3



Screenshot 4



Screenshot 5



Screenshot 6



Screenshot 7



Screenshot 8



Screenshot 9



Screenshot 0



Complete name : 15.17.To Paris.2018.CAM.Clean.English.Audio.LLG.mp4

Format : MPEG-4

Format profile : Base Media

Codec ID : isom (isom/iso2/avc1/mp41)

File size : 1.00 GiB

Duration : 1 h 28 min

Overall bit rate : 1 626 kb/s

Writing application : Lavf57.56.101



Video

ID : 1

Format : AVC

Format/Info : Advanced Video Codec

Format profile : [email protected]

Format settings : CABAC / 4 Ref Frames

Format settings, CABAC : Yes

Format settings, RefFrames : 4 frames

Codec ID : avc1

Codec ID/Info : Advanced Video Coding

Duration : 1 h 28 min

Bit rate : 1 500 kb/s

Width : 1 280 pixels

Height : 408 pixels

Display aspect ratio : 3.137

Frame rate mode : Constant

Frame rate : 29.970 (29970/1000) FPS

Color space : YUV

Chroma subsampling : 4:2:0

Bit depth : 8 bits

Scan type : Progressive

Bits/(Pixel*Frame) : 0.096

Stream size : 942 MiB (92%)





Audio

ID : 2

Format : AC-3

Format/Info : Audio Coding 3

Codec ID : ac-3

Duration : 1 h 28 min

Bit rate mode : Constant

Bit rate : 128 kb/s

Channel(s) : 2 channels

Channel positions : Front: L R

Sampling rate : 48.0 kHz

Frame rate : 31.250 FPS (1536 SPF)

Bit depth : 16 bits

Compression mode : Lossy

Stream size : 80.7 MiB (8%)

Service kind : Complete Main

Default : Yes

Alternate group : 1
Internal Files
9.59 MB Sample.ts

1 GB 15.17.To Paris.2018.CAM.Clean.English.Audio.LLG.mp4

1. udp://9.rarbg.com:2710/announce

2. udp://tracker.opentrackr.org:1337/announce

3. udp://tracker.pirateparty.gr:6969/announce

4. udp://tracker.leechers-paradise.org:6969/announce

5. udp://tracker.coppersurfer.tk:6969/announce

6. udp://tracker.zer0day.to:1337/announce

TOPlist