Thelma 2017 1080p BluRay x264 AAC LLG

DOWNLOAD TORRENT DOWNLOAD
Download via magnet link
Added February 14 2018 in Movies > Drama
Verified
Size : 1.1 GB
Seeds : 1 , Peers : 0 updated 3 months ago (new update strongly recommended) Refresh Leechers
Hash code : 83dc30f33f819da1f1a93b00e384d22b929a04ba
******************************Thumbnail:**********************



SCREENSHOT



******************************Screenshots:********************



Screenshot 1



Screenshot 2



Screenshot 3



Screenshot 4



Screenshot 5



Screenshot 6



Screenshot 7



Screenshot 8



Screenshot 9



Screenshot 0



Complete name : Thelma.2017.1080p.BluRay.x264.AAC.LLG.mp4

Format : MPEG-4

Format profile : Base Media

Codec ID : isom (isom/iso2/avc1/mp41)

File size : 1.07 GiB

Duration : 1 h 56 min

Overall bit rate : 1 326 kb/s

Writing application : Lavf57.56.101



Video

ID : 1

Format : AVC

Format/Info : Advanced Video Codec

Format profile : [email protected]

Format settings : CABAC / 4 Ref Frames

Format settings, CABAC : Yes

Format settings, RefFrames : 4 frames

Codec ID : avc1

Codec ID/Info : Advanced Video Coding

Duration : 1 h 56 min

Bit rate : 1 200 kb/s

Width : 1 920 pixels

Height : 800 pixels

Display aspect ratio : 2.40:1

Frame rate mode : Constant

Frame rate : 23.976 (23976/1000) FPS

Color space : YUV

Chroma subsampling : 4:2:0

Bit depth : 8 bits

Scan type : Progressive

Bits/(Pixel*Frame) : 0.033

Stream size : 988 MiB (90%)



Audio

ID : 2

Format : AAC

Format/Info : Advanced Audio Codec

Format profile : LC

Codec ID : mp4a-40-2

Duration : 1 h 56 min

Bit rate mode : Constant

Bit rate : 129 kb/s

Channel(s) : 2 channels

Channel positions : Front: L R

Sampling rate : 48.0 kHz

Frame rate : 46.875 FPS (1024 SPF)

Compression mode : Lossy

Stream size : 107 MiB (10%)

Default : Yes

Alternate group : 1
Internal Files
25.9 MB Sample.mp4

1.07 GB Thelma.2017.1080p.BluRay.x264.AAC.LLG.mp4

1. udp://9.rarbg.com:2710/announce

2. udp://tracker.opentrackr.org:1337/announce

3. udp://tracker.pirateparty.gr:6969/announce

4. udp://tracker.leechers-paradise.org:6969/announce

5. udp://tracker.coppersurfer.tk:6969/announce

6. udp://tracker.zer0day.to:1337/announce

No related torrents found!

TOPlist