Three.Billboards.Outside.Ebbing.Missouri.2017.WEB-DL.x264-FGT

DOWNLOAD TORRENT DOWNLOAD
Download via magnet link
Added February 13 2018 in Movies > Misc
Verified
Size : 1.09 GB
Seeds : 93 , Peers : 396 updated 3 months ago (new update strongly recommended) Refresh Leechers
Hash code : 97edb8357ff3607fa36f4962a6cc7fbc8faa2910
SCREENSHOT

THREE BILLBOARDS OUTSIDE EBBING| MISSOURI is a darkly comic drama from Academy Award nominee Martin McDonagh (In Bruges). After months have passed without a culprit in her daughter's murder case| Mildred Hayes (Academy Award winner Frances McDormand) makes a bold move| painting three signs leading into her town with a controversial message directed at William Willoughby (Academy Award nominee Woody Harrelson)| the town's revered chief of police. When his second-in-command Officer Dixon (Sam Rockwell)| an immature mother's boy with a penchant for violence| gets involved| the battle between Mildred and Ebbing's law enforcement is only exacerbated.



IMDB Rating: 8.3/10 from 96852 users Updated : 2018-02-13


Rotten Rating: 8.5/10


RottenTomatoes: fresh! 93% audience liked it! 87%


Genres: Crime , Drama


Actors: Frances McDormand , Woody Harrelson , Sam Rockwell , Caleb Landry Jones , Kerry Condon , Alejandro Barrios , Jason Redford , Darrell Britt-Gibson , Abbie Cornish , Riya May Atwood , Selah Atwood , Lucas Hedges , Zeljko Ivanek , Amanda Warren , Malaya Rivera Drew


Director: Martin McDonagh



Video


ID : 1


Format : AVC


Format/Info : Advanced Video Codec


Format profile : [email protected]
Format settings : CABAC / 5 Ref Frames


Format settings, CABAC : Yes


Format settings, ReFrames : 5 frames


Codec ID : avc1


Codec ID/Info : Advanced Video Coding


Duration : 1 h 55 min


Bit rate : 1 100 kb/s


Width : 720 pixels


Height : 304 pixels


Display aspect ratio : 2.40:1


Frame rate mode : Constant


Frame rate : 24.000 FPS


Color space : YUV


Chroma subsampling : 4:2:0


Bit depth : 8 bits


Scan type : Progressive


Bits/(Pixel*Frame) : 0.209


Stream size : 902 MiB (81%)


Title : Three.Billboards.Outside.Ebbing.Missouri.2017.WEB-DL.x264-FGT


Writing library : x264 core 148 r2795M aaa9aa8


Encoding settings : cabac=1 / ref=5 / deblock=1:-1:-1 / analyse=0x3:0x113 / me=umh / subme=9 / psy=1 / psy_rd=1.00:0.15 / mixed_ref=1 / me_range=16 / chroma_me=1 / trellis=2 / 8x8dct=1 / cqm=0 / deadzone=21,11 / fast_pskip=1 / chroma_qp_offset=-3 / threads=24 / lookahead_threads=2 / sliced_threads=0 / nr=0 / decimate=1 / interlaced=0 / bluray_compat=0 / constrained_intra=0 / bframes=3 / b_pyramid=2 / b_adapt=2 / b_bias=0 / direct=3 / weightb=1 / open_gop=0 / weightp=2 / keyint=250 / keyint_min=24 / scenecut=40 / intra_refresh=0 / rc_lookahead=50 / rc=abr / mbtree=1 / bitrate=1100 / ratetol=1.0 / qcomp=0.60 / qpmin=0 / qpmax=69 / qpstep=4 / ip_ratio=1.40 / aq=1:1.00


Language : English



Audio


ID : 2


Format : AAC


Format/Info : Advanced Audio Codec


Format profile : LC


Codec ID : mp4a-40-2


Duration : 1 h 55 min


Duration_LastFrame : -11 ms


Bit rate mode : Constant


Bit rate : 256 kb/s


Channel(s) : 2 channels


Channel positions : Front: L R


Sampling rate : 48.0 kHz


Frame rate : 46.875 FPS (1024 SPF)


Compression mode : Lossy


Stream size : 211 MiB (19%)


Title : Three.Billboards.Outside.Ebbing.Missouri.2017.WEB-DL.x264-FGT


Language : English


Default : Yes


Alternate group : 1



SCREENSHOT
SCREENSHOT

Internal Files
31 Byte RARBG.txt

1.09 GB Three.Billboards.Outside.Ebbing.Missouri.2017.WEB-DL.x264-FGT.mp4

1. udp://9.rarbg.com:2710/announce

2. udp://tracker.opentrackr.org:1337/announce

3. udp://tracker.pirateparty.gr:6969/announce

4. udp://tracker.leechers-paradise.org:6969/announce

5. udp://tracker.coppersurfer.tk:6969/announce

6. udp://tracker.zer0day.to:1337/announce

No related torrents found!

TOPlist