Three.Billboards.Outside.Ebbing.Missouri.2017.WEB-DL.XviD.MP3-FGT

DOWNLOAD TORRENT DOWNLOAD
Download via magnet link
Added February 13 2018 in Movies > Misc
Verified
Size : 1.37 GB
Seeds : 106 , Peers : 177 updated 1 week ago (new update strongly recommended) Refresh Leechers
Hash code : 8d9d246eae59e579f8b0cef141c3a1e503bc53cf
SCREENSHOT

THREE BILLBOARDS OUTSIDE EBBING| MISSOURI is a darkly comic drama from Academy Award nominee Martin McDonagh (In Bruges). After months have passed without a culprit in her daughter's murder case| Mildred Hayes (Academy Award winner Frances McDormand) makes a bold move| painting three signs leading into her town with a controversial message directed at William Willoughby (Academy Award nominee Woody Harrelson)| the town's revered chief of police. When his second-in-command Officer Dixon (Sam Rockwell)| an immature mother's boy with a penchant for violence| gets involved| the battle between Mildred and Ebbing's law enforcement is only exacerbated.



IMDB Rating: 8.3/10 from 96852 users Updated : 2018-02-13


Rotten Rating: 8.5/10


RottenTomatoes: fresh! 93% audience liked it! 87%


Genres: Crime , Drama


Actors: Frances McDormand , Woody Harrelson , Sam Rockwell , Caleb Landry Jones , Kerry Condon , Alejandro Barrios , Jason Redford , Darrell Britt-Gibson , Abbie Cornish , Riya May Atwood , Selah Atwood , Lucas Hedges , Zeljko Ivanek , Amanda Warren , Malaya Rivera Drew


Director: Martin McDonagh



Video


ID : 0


Format : MPEG-4 Visual


Format profile : [email protected]
Format settings, BVOP : No


Format settings, QPel : No


Format settings, GMC : No warppoints


Format settings, Matrix : Default (H.263)


Codec ID : XVID


Codec ID/Hint : XviD


Duration : 1 h 55 min


Bit rate : 1 489 kb/s


Width : 720 pixels


Height : 304 pixels


Display aspect ratio : 2.40:1


Frame rate : 24.000 FPS


Color space : YUV


Chroma subsampling : 4:2:0


Bit depth : 8 bits


Scan type : Progressive


Compression mode : Lossy


Bits/(Pixel*Frame) : 0.283


Stream size : 1.20 GiB (88%)


Writing library : Lavc58.1.100



Audio


ID : 1


Format : MPEG Audio


Format version : Version 1


Format profile : Layer 3


Format settings : Joint stereo / MS Stereo


Codec ID : 55


Codec ID/Hint : MP3


Duration : 1 h 55 min


Bit rate mode : Constant


Bit rate : 192 kb/s


Channel(s) : 2 channels


Sampling rate : 48.0 kHz


Compression mode : Lossy


Stream size : 158 MiB (11%)


Alignment : Aligned on interleaves


Interleave, duration : 24 ms (0.58 video frame)


Interleave, preload duration : 504 ms


Writing library : LAMEÿÿÿæVa¡ ÂÀ

SCREENSHOT
SCREENSHOT
Three.Billboards.Outside.Ebbing.Missouri.2017.WEB-DL.XviD.MP3-FGT
RARBG.txt   31 Byte
Three.Billboards.Outside.Ebbing.Missouri.2017.WEB-DL.XviD.MP3-FGT.avi   1.37 GB

1. udp://9.rarbg.com:2710/announce

2. http://bigfoot1942.sektori.org:6969/announce

3. http://tracker2.wasabii.com.tw:6969/announce

4. http://tracker.opentrackr.org/announce

5. http://announce.torrentsmd.com:6969/announce

6. http://tracker.trackerfix.com/announce

7. http://tracker.opentrackr.org/announce

8. udp://explodie.org:6969/announce

9. udp://mgtracker.org:6969/announce

10. udp://asnet.pw:2710/announce

11. udp://tracker.mgtracker.org:2710/announce

12. udp://tracker4.piratux.com:6969/announce

13. udp://tracker.trackerfix.com:80/announce

14. udp://tracker.pomf.se:80/announce

15. udp://tracker.x4w.co:6969/announce

16. udp://castradio.net:6969/announce

17. udp://ipv4.tracker.harry.lu:80/announce

18. udp://tracker.mg64.net:6881/announce

19. udp://tracker.sktorrent.net:6969/announce

20. udp://tracker.blackunicorn.xyz:6969/announce

21. udp://tracker.internetwarriors.net:1337/announce

22. udp://public.popcorn-tracker.org:6969/announce

23. udp://glotorrents.pw:6969/announce

24. udp://tracker.vanitycore.co:6969/announce

25. udp://tracker.trackerfix.com:80/announce

26. udp://p4p.arenabg.ch:1337/announce

27. udp://9.rarbg.me:2710/announce

28. udp://tracker.zer0day.to:1337/announce

29. udp://tracker.opentrackr.org:1337/announce

30. udp://tracker.pirateparty.gr:6969/announce

31. udp://9.rarbg.to:2710/announce

32. udp://eddie4.nl:6969/announce

33. udp://tracker.coppersurfer.tk:6969/announce

34. udp://tracker.leechers-paradise.org:6969/announce

35. http://tracker.trackerfix.com/announce

36. udp://9.rarbg.to:2710/announce

37. udp://9.rarbg.me:2710/announce

No related torrents found!

TOPlist