Only Connect S13E26 Wanderers v Vikings. revittony

DOWNLOAD TORRENT DOWNLOAD
Download via magnet link
Added February 13 2018 in Series > Misc
Verified
Size : 514 MB
Seeds : 1 , Peers : 0 updated 3 months ago (new update strongly recommended) Refresh Leechers
Hash code : c4483a347f4fb06f7898fdeffb50ea564fdcada8
Format : MPEG-4

Format profile : Base Media

Codec ID : isom (isom/iso2/avc1/mp41)

Overall bit rate mode : Variable

Overall bit rate : 2 405 kb/s



Video

ID : 1

Format : AVC

Format/Info : Advanced Video Codec

Format profile : [email protected]

Format settings, CABAC : Yes

Format settings, RefFrames : 2 frames

Codec ID : avc1

Codec ID/Info : Advanced Video Coding

Bit rate mode : Variable

Bit rate : 2 306 kb/s

Maximum bit rate : 3 500 kb/s

Width : 1 280 pixels

Height : 720 pixels

Display aspect ratio : 16:9

Frame rate mode : Constant

Frame rate : 25.000 FPS

Color space : YUV

Chroma subsampling : 4:2:0

Bit depth : 8 bits

Scan type : Progressive

Bits/(Pixel*Frame) : 0.100

Stream size : 478 MiB (96%)



Audio

ID : 2

Format : AAC

Format/Info : Advanced Audio Codec

Format profile : LC

Codec ID : 40

Bit rate mode : Constant

Bit rate : 93.5 kb/s

Channel(s) : 2 channels

Channel positions : Front: L R

Sampling rate : 48.0 kHz

Frame rate : 46.875 FPS (1024 SPF)

Compression mode : Lossy

Stream size : 19.4 MiB (4%)

Default : Yes

Alternate group : 1
Internal Files
506.96 MB Only Connect S13E26 Wanderers v Vikings.mp4

1. udp://9.rarbg.com:2710/announce

2. udp://tracker.opentrackr.org:1337/announce

3. udp://tracker.pirateparty.gr:6969/announce

4. udp://tracker.leechers-paradise.org:6969/announce

5. udp://tracker.coppersurfer.tk:6969/announce

6. udp://tracker.zer0day.to:1337/announce

No related torrents found!

TOPlist