Tiger Zinda Hai 2017 720p BluRay DD 5 1 x264 ESub

DOWNLOAD TORRENT DOWNLOAD
Download via magnet link
Added February 11 2018 in Movies > Adventure
Verified
Size : 1.23 GB
Seeds : 12 , Peers : 88 updated 3 months ago (new update strongly recommended) Refresh Leechers
Hash code : 9c04ebb9151cd850ec11020119e4e2c4f0791679


SCREENSHOT



General

Format : Matroska

Format version : Version 4 / Version 2

File size : 1.23 GiB

Duration : 2 h 40 min

Overall bit rate : 1 102 kb/s



Video

ID : 1

Format : AVC

Format/Info : Advanced Video Codec

Format profile : [email protected]

Format settings : CABAC / 4 Ref Frames

Format settings, CABAC : Yes

Format settings, ReFrames : 4 frames

Codec ID : V_MPEG4/ISO/AVC

Duration : 2 h 40 min

Bit rate : 900 kb/s

Width : 1 280 pixels

Height : 544 pixels

Display aspect ratio : 2.35:1

Frame rate mode : Constant

Frame rate : 24.000 FPS

Color space : YUV

Chroma subsampling : 4:2:0

Bit depth : 8 bits

Scan type : Progressive

Bits/(Pixel*Frame) : 0.054

Stream size : 1.00 GiB (82%)

Writing library : x264 core 148 r2708 86b7198

Default : Yes

Forced : No



Audio

ID : 4

Format : AC-3

Format/Info : Audio Coding 3

Codec ID : A_AC3

Duration : 2 h 39 min

Bit rate mode : Constant

Bit rate : 192 kb/s

Channel(s) : 6 channels

Channel positions : Front: L C R, Side: L R, LFE

Sampling rate : 48.0 kHz

Frame rate : 31.250 FPS (1536 SPF)

Bit depth : 16 bits

Compression mode : Lossy

Stream size : 220 MiB (17%)

Service kind : Complete Main

Default : Yes

Forced : No



Text #1

ID : 2

Format : PGS

Muxing mode : zlib

Codec ID : S_HDMV/PGS

Codec ID/Info : Picture based subtitle format used on BDs/HD-DVDs

Duration : 2 h 23 min

Bit rate : 700 b/s

Count of elements : 216

Stream size : 738 KiB (0%)

Language : Hindi

Default : Yes

Forced : No



Text #2

ID : 3

Format : PGS

Muxing mode : zlib

Codec ID : S_HDMV/PGS

Codec ID/Info : Picture based subtitle format used on BDs/HD-DVDs

Duration : 2 h 33 min

Bit rate : 9 414 b/s

Count of elements : 3016

Stream size : 10.3 MiB (1%)

Language : English

Default : No

Forced : No



Menu

00:00:00.000 : en:00:00:00.000

00:01:32.000 : en:00:01:32.000

00:08:41.167 : en:00:08:41.167

00:17:46.208 : en:00:17:46.208

00:24:54.833 : en:00:24:54.833

00:28:38.000 : en:00:28:38.000

00:33:27.458 : en:00:33:27.458

00:39:18.625 : en:00:39:18.625

00:46:10.417 : en:00:46:10.417

00:51:50.500 : en:00:51:50.500

00:59:08.917 : en:00:59:08.917

01:06:13.042 : en:01:06:13.042

01:13:37.167 : en:01:13:37.167

01:21:20.167 : en:01:21:20.167

01:30:21.917 : en:01:30:21.917

01:37:11.625 : en:01:37:11.625

01:46:10.583 : en:01:46:10.583

01:50:50.458 : en:01:50:50.458

01:59:53.833 : en:01:59:53.833

02:09:24.708 : en:02:09:24.708

02:17:12.333 : en:02:17:12.333

02:27:13.000 : en:02:27:13.000

02:33:19.958 : en:02:33:19.958

02:37:13.417 : en:02:37:13.417











SCREENSHOT

SCREENSHOT

SCREENSHOT

SCREENSHOT

SCREENSHOT

SCREENSHOT

SCREENSHOT

SCREENSHOT

SCREENSHOT

SCREENSHOT

Internal Files
1.23 GB Tiger Zinda Hai 2017 720p BluRay DD 5.1 x264 ESub.mkv

1. udp://9.rarbg.com:2710/announce

2. udp://tracker.opentrackr.org:1337/announce

3. udp://tracker.pirateparty.gr:6969/announce

4. udp://tracker.leechers-paradise.org:6969/announce

5. udp://tracker.coppersurfer.tk:6969/announce

6. udp://tracker.zer0day.to:1337/announce

TOPlist