Headgame 2018 720p BluRay x264 ESub

DOWNLOAD TORRENT DOWNLOAD
Download via magnet link
Added February 9 2018 in Movies > Horror
Verified
Size : 777.3 MB
Seeds : 7 , Peers : 11 updated 1 week ago (new update strongly recommended) Refresh Leechers
Hash code : 019f8f9ad21c0bb156d9c47fd4339d73ab840d2c


SCREENSHOT



General

Format : Matroska

Format version : Version 4 / Version 2

File size : 777 MiB

Duration : 1 h 32 min

Overall bit rate : 1 179 kb/s



Video

ID : 1

Format : AVC

Format/Info : Advanced Video Codec

Format profile : [email protected]

Format settings : CABAC / 4 Ref Frames

Format settings, CABAC : Yes

Format settings, ReFrames : 4 frames

Codec ID : V_MPEG4/ISO/AVC

Duration : 1 h 32 min

Bit rate : 1 100 kb/s

Width : 1 280 pixels

Height : 720 pixels

Display aspect ratio : 16:9

Frame rate mode : Constant

Frame rate : 23.976 (24000/1001) FPS

Color space : YUV

Chroma subsampling : 4:2:0

Bit depth : 8 bits

Scan type : Progressive

Bits/(Pixel*Frame) : 0.050

Stream size : 709 MiB (91%)

Writing library : x264 core 148 r2708 86b7198

Default : Yes

Forced : No



Audio

ID : 3

Format : AAC

Format/Info : Advanced Audio Codec

Format profile : LC

Codec ID : A_AAC-2

Duration : 1 h 32 min

Bit rate : 96.0 kb/s

Channel(s) : 2 channels

Channel positions : Front: L R

Sampling rate : 44.1 kHz

Frame rate : 43.066 FPS (1024 SPF)

Compression mode : Lossy

Stream size : 63.2 MiB (8%)

Language : English

Default : Yes

Forced : No



Text

ID : 2

Format : VobSub

Muxing mode : zlib

Codec ID : S_VOBSUB

Codec ID/Info : Picture based subtitle format used on DVDs

Duration : 1 h 28 min

Bit rate : 3 707 b/s

Count of elements : 975

Stream size : 2.36 MiB (0%)

Language : English

Default : Yes

Forced : No



Menu

00:00:00.000 : en:00:00:00.000

00:05:54.854 : en:00:05:54.854

00:15:11.994 : en:00:15:11.994

00:22:08.827 : en:00:22:08.827

00:30:40.213 : en:00:30:40.213

00:42:33.342 : en:00:42:33.342

00:53:37.464 : en:00:53:37.464

01:03:18.336 : en:01:03:18.336

01:12:44.068 : en:01:12:44.068

01:22:41.707 : en:01:22:41.707











SCREENSHOT

SCREENSHOT

SCREENSHOT

SCREENSHOT

SCREENSHOT

SCREENSHOT

SCREENSHOT

SCREENSHOT

SCREENSHOT

Headgame 2018 720p BluRay x264 ESub
Headgame 2018 720p BluRay x264 ESub.mkv   776.51 MB

1. udp://9.rarbg.com:2710/announce

2. udp://tracker.coppersurfer.tk:6969/announce

3. udp://tracker.leechers-paradise.org:6969/announce

4. udp://inferno.demonoid.pw:3391/announce

5. udp://tracker.tntvillage.scambioetico.org:2710/announce

6. udp://tracker.pirateparty.gr:6969/announce

7. udp://9.rarbg.com:2770/announce

8. udp://public.popcorn-tracker.org:6969/announce

9. udp://tracker.zer0day.to:1337/announce

10. http://bigfoot1942.sektori.org:6969/announce

11. udp://ipv4.tracker.harry.lu:80/announce

12. udp://shadowshq.yi.org:6969/announce

13. udp://tracker.vanitycore.co:6969/announce

14. udp://tracker.opentrackr.org:1337/announce

15. udp://explodie.org:6969/announce

16. udp://tracker.zer0day.to:1337/announce

17. udp://tracker.leechers-paradise.org:6969/announce

18. udp://coppersurfer.tk:6969/announce

No related torrents found!

TOPlist