The Village (2004).H264.italian.english.Ac3-5.1.sub.ita.eng.MIRCrew

DOWNLOAD TORRENT DOWNLOAD
Download via magnet link
Added February 9 2018 in Movies > Horror
Verified
Size : 1.55 GB
Seeds : 1 , Peers : 2 updated 3 months ago (new update strongly recommended) Refresh Leechers
Hash code : 70506eb4da801346e0fc6441dd622f361e08ae4d
The Village (2004).H264.italian.english.Ac3-5.1.sub.ita.eng.MIRCrew



SCREENSHOT

NO FOUND ONLY ORIGINAL RELEASE



SCREENSHOT



My release is always in double track audio italian and Original audio

for select it use VLC or dvd player home

not use wmp



The Village (2004)



SCREENSHOT



SCREENSHOT



SCREENSHOT



Paese di produzione Stati Uniti d'America

Anno 2004

Durata 108 min.

Genere drammatico, thriller

Regia M. Night Shyamalan

Soggetto M. Night Shyamalan

Sceneggiatura M. Night Shyamalan

Fotografia Roger Deakins, Gerardo Puglia

Montaggio Christopher Tellefsen

Musiche James Newton Howard

Scenografia Tom Foden

Costumi Ann Roth



SCREENSHOT



Joaquin Phoenix: Lucius Hunt

Bryce Dallas Howard: Ivy Walker

Adrien Brody: Noah Percy

William Hurt: Edward Walker

Sigourney Weaver: Alice Hunt

Brendan Gleeson: August Nicholson

Cherry Jones: Mrs. Clack

Celia Weston: Vivian Percy

John Christopher Jones: Robert Percy

Judy Greer: Kitty Walker

Fran Kranz: Christop Crane

Michael Pitt: Finton Coin

Jesse Eisenberg: Jamison



SCREENSHOT



Convigton, Pennsylvania: un villaggio americano del XIX secolo è circondato da una foresta che sembra essere infestata da mostruose creature e.....................................



SCREENSHOT



M Night Shyamalan's The Villiage revolves around a desolate town in Pennsylvania. The residents of this town live by strict rules - They are not to leave the village or the monsters beyond their boundaries will surely attack them. Lucius and Ivy have an attraction.........



SCREENSHOT



SCREENSHOT

SCREENSHOT

SCREENSHOT

SCREENSHOT

SCREENSHOT







SCREENSHOT



[spoiler]

General

Unique ID : 247144276894984906615184280238120506629 (0xB9EE419FDD78B31892F44E757FC81505)

Complete name : The Village (2004).H264.ita.eng.sub.ita.eng-MIRCrewThe Village (2004).H264.ita.eng.sub.ita.eng-MIRCrew.mkv

Format : Matroska

Format version : Version 2

File size : 1.55 GiB

Duration : 1h 47mn

Overall bit rate : 2 053 Kbps

Movie name : MIRCrew

Encoded date : UTC 2017-12-25T14:54:28Z

Writing application : mkvmerge v5.4.0 ('Piper') built on Mar 10 2012 13:34:39

Writing library : Lavf55.12.0



Video

ID : 1

Format : AVC

Format/Info : Advanced Video Codec

Format profile : [email protected]

Format settings, CABAC : Yes

Format settings, ReFrames : 4 frames

Codec ID : V_MPEG4/ISO/AVC

Duration : 1h 47mn

Bit rate : 1 290 Kbps

Width : 720 pixels

Height : 384 pixels

Display aspect ratio : 1.875

Frame rate mode : Variable / Variable

Frame rate : 23.976 fps

Color space : YUV

Chroma subsampling : 4:2:0

Bit depth : 8 bits

Scan type : Progressive

Bits/(Pixel*Frame) : 0.195

Stream size : 960 MiB (61%)

Title : MIRCrew

Writing library : x264 core 142 r2479 dd79a61

Encoding settings : cabac=1 / ref=3 / deblock=1:0:0 / analyse=0x3:0x113 / me=hex / subme=7 / psy=1 / psy_rd=1.00:0.00 / mixed_ref=1 / me_range=16 / chroma_me=1 / trellis=1 / 8x8dct=1 / cqm=0 / deadzone=21,11 / fast_pskip=1 / chroma_qp_offset=-2 / threads=3 / lookahead_threads=1 / sliced_threads=0 / nr=0 / decimate=1 / interlaced=0 / bluray_compat=0 / constrained_intra=0 / bframes=3 / b_pyramid=2 / b_adapt=1 / b_bias=0 / direct=1 / weightb=1 / open_gop=0 / weightp=2 / keyint=240 / keyint_min=24 / scenecut=40 / intra_refresh=0 / rc_lookahead=40 / rc=abr / mbtree=1 / bitrate=1290 / ratetol=1.0 / qcomp=0.60 / qpmin=0 / qpmax=69 / qpstep=4 / vbv_maxrate=62500 / vbv_bufsize=78125 / nal_hrd=none / filler=0 / ip_ratio=1.40 / aq=1:1.00

Language : Italian

Default : Yes

Forced : No

Color primaries : BT.709-5, BT.1361, IEC 61966-2-4, SMPTE RP177

Transfer characteristics : BT.709-5, BT.1361

Matrix coefficients : BT.709-5, BT.1361, IEC 61966-2-4 709, SMPTE RP177



Audio #1

ID : 2

Format : AC-3

Format/Info : Audio Coding 3

Mode extension : CM (complete main)

Codec ID : A_AC3

Duration : 1h 47mn

Bit rate mode : Constant

Bit rate : 384 Kbps

Channel(s) : 6 channels

Channel positions : Front: L C R, Side: L R, LFE

Sampling rate : 48.0 KHz

Bit depth : 16 bits

Compression mode : Lossy

Delay relative to video : -5ms

Stream size : 296 MiB (19%)

Title : ac3 5.1

Language : Italian

Default : Yes

Forced : No



Audio #2

ID : 3

Format : AC-3

Format/Info : Audio Coding 3

Mode extension : CM (complete main)

Codec ID : A_AC3

Duration : 1h 47mn

Bit rate mode : Constant

Bit rate : 384 Kbps

Channel(s) : 6 channels

Channel positions : Front: L C R, Side: L R, LFE

Sampling rate : 48.0 KHz

Bit depth : 16 bits

Compression mode : Lossy

Delay relative to video : -166ms

Stream size : 296 MiB (19%)

Title : ac3 5.1

Language : English

Default : No

Forced : No









[/spoiler]


Internal Files
55.01 KB The Village (2004).H264.ita.eng.sub.ita.eng-MIRCrew.eng.srt

49.59 KB The Village (2004).H264.ita.eng.sub.ita.eng-MIRCrew.ita.srt

1.55 GB The Village (2004).H264.ita.eng.sub.ita.eng-MIRCrew.mkv

1. udp://9.rarbg.com:2710/announce

2. udp://tracker.opentrackr.org:1337/announce

3. udp://tracker.pirateparty.gr:6969/announce

4. udp://tracker.leechers-paradise.org:6969/announce

5. udp://tracker.coppersurfer.tk:6969/announce

6. udp://tracker.zer0day.to:1337/announce

No related torrents found!

TOPlist