Harry Potter e la Camera dei Segreti (2002) BDRip 2160p HEVC ENG DTS-X 7 1 ITA ENG AC3 PirateMKV mkv

DOWNLOAD TORRENT DOWNLOAD
Download via magnet link
Added February 1 2018 in Movies > Adventure
Verified
Size : 21.48 GB
Seeds : 12 , Peers : 53 updated 3 months ago (new update strongly recommended) Refresh Leechers
Hash code : 07b19a8aebe8e196849c80d31e470627c20ba80d
SCREENSHOT



SCREENSHOT



SCREENSHOT



Harry Potter e la Camera dei Segreti



SCREENSHOT



SCREENSHOT



Titolo: Harry Potter and the Chamber of Secrets

Nazione: UK, USA, Germany

Anno: 2002

Genere: Adventure, Family, Fantasy

Durata: 161 min

Regia: Chris Columbus

Voti: IMDb (7.4/10), Rotten Tomatoes (82%), Metacritic (63/100)

Cast: Daniel Radcliffe, Rupert Grint, Emma Watson, Richard Griffiths




SCREENSHOT



Harry non ascolta i consigli dell'elfo Dobby e, a bordo della sua macchina volante, si reca col suo amico Ron alla scuola di magia di Hogwarts. Quando arriva all'istituto, scopre che non tutto fila per il verso giusto: infatti la camera dei segreti è stata riaperta, consentendo a una creatura mostruosa di seminare il caos. Le sue vittime vengono infatti trasformate in pietra, e a sventare la minaccia non serve l'aiuto del popolare professor Gilderoy Lockhart. A salvare la situazione dovrà intervenire proprio Harry...



SCREENSHOT



SCREENSHOT

SCREENSHOT



SCREENSHOT



General

Unique ID : 304699131749915352442809283216618663226 (0xE53AEB0E46D6AA1FDF4966C352E5AD3A)

Complete name : C:UsersAdministratorDownloadsNewsHarry Potter e la camera dei segreti UHDHarry Potter e la Camera dei Segreti (2002) BDRip 2160p HEVC ENG DTS-X 7.1 ITA ENG AC3 PirateMKV.mkv

Format : Matroska

Format version : Version 4 / Version 2

File size : 21.5 GiB

Duration : 2 h 40 min

Overall bit rate : 19.1 Mb/s

Movie name : Harry Potter e la Camera dei Segreti (2002) - PirateMKV

Encoded date : UTC 2018-01-06 10:33:23

Writing application : mkvmerge v19.0.0 ('Brave Captain') 64-bit

Writing library : libebml v1.3.5 + libmatroska v1.4.8 / Lavf58.0.102



Video

ID : 1

Format : HEVC

Format/Info : High Efficiency Video Coding

Format profile : Main [email protected]@High

Codec ID : V_MPEGH/ISO/HEVC

Duration : 2 h 40 min

Bit rate : 13.7 Mb/s

Width : 3 840 pixels

Height : 2 160 pixels

Display aspect ratio : 16:9

Frame rate mode : Constant

Frame rate : 23.976 (24000/1001) FPS

Color space : YUV

Chroma subsampling : 4:2:0 (Type 2)

Bit depth : 10 bits

Bits/(Pixel*Frame) : 0.069

Stream size : 15.4 GiB (72%)

Writing library : x265 2.5+32-0bc372b7ca78:[Windows][GCC 7.1.0][64 bit] 10bit

Encoding settings : cpuid=1173503 / frame-threads=3 / numa-pools=8 / wpp / no-pmode / no-pme / no-psnr / no-ssim / log-level=2 / input-csp=1 / input-res=3840x2160 / interlace=0 / total-frames=0 / level-idc=51 / high-tier=1 / uhd-bd=1 / ref=5 / no-allow-non-conformance / repeat-headers / annexb / aud / hrd / info / hash=0 / no-temporal-layers / no-open-gop / min-keyint=1 / keyint=24 / bframes=8 / b-adapt=2 / b-pyramid / bframe-bias=0 / rc-lookahead=40 / lookahead-slices=0 / scenecut=40 / no-intra-refresh / ctu=64 / min-cu-size=8 / no-rect / no-amp / max-tu-size=32 / tu-inter-depth=4 / tu-intra-depth=4 / limit-tu=4 / rdoq-level=0 / dynamic-rd=0.00 / no-ssim-rd / signhide / no-tskip / nr-intra=0 / nr-inter=0 / no-constrained-intra / no-strong-intra-smoothing / max-merge=3 / limit-refs=3 / limit-modes / me=2 / subme=5 / merange=57 / temporal-mvp / weightp / weightb / no-analyze-src-pics / deblock=-3:-3 / no-sao / no-sao-non-deblock / rd=4 / no-early-skip / rskip / fast-intra / no-tskip-fast / no-cu-lossless / b-intra / no-splitrd-skip / rdpenalty=0 / psy-rd=2.00 / psy-rdoq=0.00 / no-rd-refine / analysis-reuse-mode=0 / no-lossless / cbqpoffs=-3 / crqpoffs=-3 / rc=crf / crf=19.5 / qcomp=0.70 / qpstep=4 / stats-write=0 / stats-read=0 / vbv-maxrate=160000 / vbv-bufsize=160000 / vbv-init=0.9 / crf-max=0.0 / crf-min=0.0 / ipratio=1.40 / pbratio=1.30 / aq-mode=3 / aq-strength=0.70 / no-cutree / zone-count=0 / no-strict-cbr / qg-size=32 / no-rc-grain / qpmax=69 / qpmin=0 / no-const-vbv / sar=1 / overscan=0 / videoformat=5 / range=0 / colorprim=9 / transfer=16 / colormatrix=9 / chromaloc=1 / chromaloc-top=2 / chromaloc-bottom=2 / display-window=0 / master-display=G(13250,34500)B(7500,3000)R(34000,16000)WP(15635,16450)L(40000000,50) / max-cll=2856,222 / min-luma=0 / max-luma=1023 / log2-max-poc-lsb=8 / vui-timing-info / vui-hrd-info / slices=1 / opt-qp-pps / opt-ref-list-length-pps / no-multi-pass-opt-rps / scenecut-bias=0.05 / no-opt-cu-delta-qp / no-aq-motion / hdr / hdr-opt / no-dhdr10-opt / analysis-reuse-level=5 / scale-factor=0 / refine-intra=0 / refine-inter=0 / refine-mv=0 / no-limit-sao / ctu-info=0

Language : English

Default : Yes

Forced : No

Color range : Limited

Color primaries : BT.2020

Transfer characteristics : SMPTE ST 2084

Matrix coefficients : BT.2020 non-constant

Mastering display color primaries : R: x=0.680000 y=0.320000, G: x=0.265000 y=0.690000, B: x=0.150000 y=0.060000, White point: x=0.312700 y=0.329000

Mastering display luminance : min: 0.0050 cd/m2, max: 4000.0000 cd/m2

Maximum Content Light Level : 2856 cd/m2

Maximum Frame-Average Light Level : 222 cd/m2



Audio #1

ID : 2

Format : AC-3

Format/Info : Audio Coding 3

Format settings, Endianness : Big

Codec ID : A_AC3

Duration : 2 h 40 min

Bit rate mode : Constant

Bit rate : 640 kb/s

Channel(s) : 6 channels

Channel positions : Front: L C R, Side: L R, LFE

Sampling rate : 48.0 kHz

Frame rate : 31.250 FPS (1536 SPF)

Bit depth : 16 bits

Compression mode : Lossy

Stream size : 737 MiB (3%)

Title : AC3 5.1

Language : Italian

Service kind : Complete Main

Default : Yes

Forced : No



Audio #2

ID : 3

Format : DTS

Format/Info : Digital Theater Systems

Format profile : X / MA / Core

Mode : 16

Format settings, Endianness : Big

Codec ID : A_DTS

Duration : 2 h 40 min

Bit rate mode : Variable / Variable / Constant

Bit rate : 4 151 kb/s / 4 151 kb/s / 1 509 kb/s

Channel(s) : Object Based / 8 channels / 6 channels

Channel positions : Object Based / Front: L C R, Side: L R, Back: L R, LFE / Front: L C R, Side: L R, LFE

Sampling rate : / 48.0 kHz / 48.0 kHz

Frame rate : 93.750 FPS (512 SPF)

Bit depth : / 24 bits / 24 bits

Compression mode : / Lossless / Lossy

Stream size : 4.67 GiB (22%)

Title : DTS-X 7.1

Language : English

Default : No

Forced : No



Audio #3

ID : 4

Format : AC-3

Format/Info : Audio Coding 3

Format settings, Endianness : Big

Codec ID : A_AC3

Duration : 2 h 40 min

Bit rate mode : Constant

Bit rate : 640 kb/s

Channel(s) : 6 channels

Channel positions : Front: L C R, Side: L R, LFE

Sampling rate : 48.0 kHz

Frame rate : 31.250 FPS (1536 SPF)

Bit depth : 16 bits

Compression mode : Lossy

Stream size : 737 MiB (3%)

Title : AC3 5.1

Language : English

Service kind : Complete Main

Default : No

Forced : No



Text #1

ID : 5

Format : UTF-8

Codec ID : S_TEXT/UTF8

Codec ID/Info : UTF-8 Plain Text

Duration : 2 h 29 min

Bit rate : 0 b/s

Count of elements : 16

Stream size : 313 Bytes (0%)

Title : Forced

Language : Italian

Default : Yes

Forced : Yes



Text #2

ID : 6

Format : UTF-8

Codec ID : S_TEXT/UTF8

Codec ID/Info : UTF-8 Plain Text

Duration : 2 h 40 min

Bit rate : 50 b/s

Count of elements : 1585

Stream size : 59.3 KiB (0%)

Title : SDH

Language : Italian

Default : No

Forced : No



Text #3

ID : 7

Format : UTF-8

Codec ID : S_TEXT/UTF8

Codec ID/Info : UTF-8 Plain Text

Duration : 2 h 39 min

Bit rate : 49 b/s

Count of elements : 1579

Stream size : 58.2 KiB (0%)

Title : SDH

Language : English

Default : No

Forced : No



Menu

00:00:00.000 : en:00:00:00.000

00:03:00.972 : en:00:03:00.972

00:07:55.517 : en:00:07:55.517

00:10:39.889 : en:00:10:39.889

00:14:07.055 : en:00:14:07.055

00:17:57.702 : en:00:17:57.702

00:22:16.085 : en:00:22:16.085

00:25:49.590 : en:00:25:49.590

00:28:50.312 : en:00:28:50.312

00:31:07.949 : en:00:31:07.949

00:35:14.154 : en:00:35:14.154

00:38:00.361 : en:00:38:00.361

00:42:47.940 : en:00:42:47.940

00:48:16.102 : en:00:48:16.102

00:52:16.091 : en:00:52:16.091

00:57:56.932 : en:00:57:56.932

01:03:13.832 : en:01:03:13.832

01:07:50.483 : en:01:07:50.483

01:11:56.103 : en:01:11:56.103

01:17:22.346 : en:01:17:22.346

01:21:33.806 : en:01:21:33.806

01:25:39.885 : en:01:25:39.885

01:29:42.210 : en:01:29:42.210

01:33:30.313 : en:01:33:30.313

01:37:42.857 : en:01:37:42.857

01:42:49.038 : en:01:42:49.038

01:47:01.582 : en:01:47:01.582

01:51:07.953 : en:01:51:07.953

01:55:26.169 : en:01:55:26.169

02:00:53.246 : en:02:00:53.246

02:04:09.734 : en:02:04:09.734

02:09:32.264 : en:02:09:32.264

02:14:32.398 : en:02:14:32.398

02:18:05.903 : en:02:18:05.903

02:21:20.180 : en:02:21:20.180

02:26:35.412 : en:02:26:35.412

02:31:43.052 : en:02:31:43.052



SCREENSHOT



ORARIO: SEMPRE ATTIVO

BANDA: 300KB

Credits PirateMKV




SCREENSHOT
Internal Files
21.48 GB Harry Potter e la Camera dei Segreti (2002) BDRip 2160p HEVC ENG DTS-X 7.1 ITA ENG AC3 PirateMKV.mkv

1. udp://9.rarbg.com:2710/announce

2. udp://tracker.opentrackr.org:1337/announce

3. udp://tracker.pirateparty.gr:6969/announce

4. udp://tracker.leechers-paradise.org:6969/announce

5. udp://tracker.coppersurfer.tk:6969/announce

6. udp://tracker.zer0day.to:1337/announce

TOPlist