Harry Potter e il prigioniero di Azkaban (2004) BDRip 2160p HEVC ENG DTS-X 7 1 ITA ENG AC3 PirateMKV mkv

DOWNLOAD TORRENT DOWNLOAD
Download via magnet link
Added February 1 2018 in Movies > Adventure
Verified
Size : 25.76 GB
Seeds : 21 , Peers : 34 updated 3 months ago (new update strongly recommended) Refresh Leechers
Hash code : fbfd9993e3bbd8df58af28e840207c7d90c73734
SCREENSHOT



SCREENSHOT



SCREENSHOT



Harry Potter e il prigioniero di Azkaban



SCREENSHOT



SCREENSHOT



Titolo: Harry Potter and the Prisoner of Azkaban

Nazione: UK, USA

Anno: 2004

Genere: Adventure, Family, Fantasy, Mystery

Durata: 142 min

Regia: Alfonso Cuarón

Cast: Daniel Radcliffe, Richard Griffiths, Pam Ferris, Fiona Shaw, Harry Melling, Adrian Rawlins, Geraldine Somerville, Lee Ingleby, Lenny Henry, Jimmy Gardner, Gary Oldman, Jim Tavaré, Robert Hardy, Abby Ford, Rupert Grint, Emma Watson




SCREENSHOT



Harry Potter è un assegno circolare. Fortunatamente per gli spettatori, è anche una serie che migliora di episodio in episodio, e questa nuova, spettacolare, puntata diretta da Cuaròn, che rientra nel progetto di far dirigere ogni nuova pellicola della serie ad un regista diverso, rappresenta, almeno fino al 2005, il punto più alto della eptalogia in divenire.



SCREENSHOT



SCREENSHOT

SCREENSHOT



SCREENSHOT



General

Unique ID : 314728182959241700863900764271598666270 (0xECC67174ECB6EA9A2BFBAB7A539C821E)

Complete name : C:UsersAdministratorDownloadsNewsHarry Potter E Il Prigioniero Di Azkaban UHDHarry Potter e il prigioniero di Azkaban (2004) BDRip 2160p HEVC ENG DTS-X 7.1 ITA ENG AC3 PirateMKV.mkv

Format : Matroska

Format version : Version 4 / Version 2

File size : 25.8 GiB

Duration : 2 h 21 min

Overall bit rate : 26.0 Mb/s

Movie name : Harry Potter e il prigioniero di Azkaban (2004) - PirateMKV

Encoded date : UTC 2018-01-12 20:46:00

Writing application : mkvmerge v19.0.0 ('Brave Captain') 64-bit

Writing library : libebml v1.3.5 + libmatroska v1.4.8 / Lavf58.0.102



Video

ID : 1

Format : HEVC

Format/Info : High Efficiency Video Coding

Format profile : Main [email protected]@High

Codec ID : V_MPEGH/ISO/HEVC

Duration : 2 h 21 min

Bit rate : 20.7 Mb/s

Width : 3 840 pixels

Height : 2 160 pixels

Display aspect ratio : 16:9

Frame rate mode : Constant

Frame rate : 23.976 (24000/1001) FPS

Color space : YUV

Chroma subsampling : 4:2:0 (Type 2)

Bit depth : 10 bits

Bits/(Pixel*Frame) : 0.104

Stream size : 20.5 GiB (80%)

Writing library : x265 2.5+32-0bc372b7ca78:[Windows][GCC 7.1.0][64 bit] 10bit

Encoding settings : cpuid=1173503 / frame-threads=3 / numa-pools=8 / wpp / no-pmode / no-pme / no-psnr / no-ssim / log-level=2 / input-csp=1 / input-res=3840x2160 / interlace=0 / total-frames=0 / level-idc=51 / high-tier=1 / uhd-bd=1 / ref=5 / no-allow-non-conformance / repeat-headers / annexb / aud / hrd / info / hash=0 / no-temporal-layers / no-open-gop / min-keyint=1 / keyint=24 / bframes=8 / b-adapt=2 / b-pyramid / bframe-bias=0 / rc-lookahead=40 / lookahead-slices=0 / scenecut=40 / no-intra-refresh / ctu=64 / min-cu-size=8 / no-rect / no-amp / max-tu-size=32 / tu-inter-depth=4 / tu-intra-depth=4 / limit-tu=4 / rdoq-level=0 / dynamic-rd=0.00 / no-ssim-rd / signhide / no-tskip / nr-intra=0 / nr-inter=0 / no-constrained-intra / no-strong-intra-smoothing / max-merge=3 / limit-refs=3 / limit-modes / me=2 / subme=5 / merange=57 / temporal-mvp / weightp / weightb / no-analyze-src-pics / deblock=-3:-3 / no-sao / no-sao-non-deblock / rd=4 / no-early-skip / rskip / fast-intra / no-tskip-fast / no-cu-lossless / b-intra / no-splitrd-skip / rdpenalty=0 / psy-rd=2.00 / psy-rdoq=0.00 / no-rd-refine / analysis-reuse-mode=0 / no-lossless / cbqpoffs=-3 / crqpoffs=-3 / rc=crf / crf=19.5 / qcomp=0.70 / qpstep=4 / stats-write=0 / stats-read=0 / vbv-maxrate=160000 / vbv-bufsize=160000 / vbv-init=0.9 / crf-max=0.0 / crf-min=0.0 / ipratio=1.40 / pbratio=1.30 / aq-mode=3 / aq-strength=0.70 / no-cutree / zone-count=0 / no-strict-cbr / qg-size=32 / no-rc-grain / qpmax=69 / qpmin=0 / no-const-vbv / sar=1 / overscan=0 / videoformat=5 / range=0 / colorprim=9 / transfer=16 / colormatrix=9 / chromaloc=1 / chromaloc-top=2 / chromaloc-bottom=2 / display-window=0 / master-display=G(13250,34500)B(7500,3000)R(34000,16000)WP(15635,16450)L(40000000,50) / max-cll=1838,277 / min-luma=0 / max-luma=1023 / log2-max-poc-lsb=8 / vui-timing-info / vui-hrd-info / slices=1 / opt-qp-pps / opt-ref-list-length-pps / no-multi-pass-opt-rps / scenecut-bias=0.05 / no-opt-cu-delta-qp / no-aq-motion / hdr / hdr-opt / no-dhdr10-opt / analysis-reuse-level=5 / scale-factor=0 / refine-intra=0 / refine-inter=0 / refine-mv=0 / no-limit-sao / ctu-info=0

Language : English

Default : Yes

Forced : No

Color range : Limited

Color primaries : BT.2020

Transfer characteristics : SMPTE ST 2084

Matrix coefficients : BT.2020 non-constant

Mastering display color primaries : R: x=0.680000 y=0.320000, G: x=0.265000 y=0.690000, B: x=0.150000 y=0.060000, White point: x=0.312700 y=0.329000

Mastering display luminance : min: 0.0050 cd/m2, max: 4000.0000 cd/m2

Maximum Content Light Level : 1838 cd/m2

Maximum Frame-Average Light Level : 277 cd/m2



Audio #1

ID : 2

Format : AC-3

Format/Info : Audio Coding 3

Format settings, Endianness : Big

Codec ID : A_AC3

Duration : 2 h 21 min

Bit rate mode : Constant

Bit rate : 448 kb/s

Channel(s) : 6 channels

Channel positions : Front: L C R, Side: L R, LFE

Sampling rate : 48.0 kHz

Frame rate : 31.250 FPS (1536 SPF)

Bit depth : 16 bits

Compression mode : Lossy

Stream size : 454 MiB (2%)

Title : AC3 5.1

Language : Italian

Service kind : Complete Main

Default : Yes

Forced : No



Audio #2

ID : 3

Format : DTS

Format/Info : Digital Theater Systems

Format profile : X / MA / Core

Mode : 16

Format settings, Endianness : Big

Codec ID : A_DTS

Duration : 2 h 21 min

Bit rate mode : Variable / Variable / Constant

Bit rate : 4 227 kb/s / 4 227 kb/s / 1 509 kb/s

Channel(s) : Object Based / 8 channels / 6 channels

Channel positions : Object Based / Front: L C R, Side: L R, Back: L R, LFE / Front: L C R, Side: L R, LFE

Sampling rate : / 48.0 kHz / 48.0 kHz

Frame rate : 93.750 FPS (512 SPF)

Bit depth : / 24 bits / 24 bits

Compression mode : / Lossless / Lossy

Stream size : 4.18 GiB (16%)

Title : DTS-X 7.1

Language : English

Default : No

Forced : No



Audio #3

ID : 4

Format : AC-3

Format/Info : Audio Coding 3

Format settings, Endianness : Big

Codec ID : A_AC3

Duration : 2 h 21 min

Bit rate mode : Constant

Bit rate : 640 kb/s

Channel(s) : 6 channels

Channel positions : Front: L C R, Side: L R, LFE

Sampling rate : 48.0 kHz

Frame rate : 31.250 FPS (1536 SPF)

Bit depth : 16 bits

Compression mode : Lossy

Stream size : 649 MiB (2%)

Title : AC3 5.1

Language : English

Service kind : Complete Main

Default : No

Forced : No



Text #1

ID : 5

Format : UTF-8

Codec ID : S_TEXT/UTF8

Codec ID/Info : UTF-8 Plain Text

Duration : 2 h 6 min

Bit rate : 0 b/s

Count of elements : 8

Stream size : 122 Bytes (0%)

Title : Forced

Language : Italian

Default : Yes

Forced : Yes



Text #2

ID : 6

Format : UTF-8

Codec ID : S_TEXT/UTF8

Codec ID/Info : UTF-8 Plain Text

Duration : 2 h 21 min

Bit rate : 57 b/s

Count of elements : 1635

Stream size : 59.2 KiB (0%)

Title : SDH

Language : Italian

Default : No

Forced : No



Text #3

ID : 7

Format : UTF-8

Codec ID : S_TEXT/UTF8

Codec ID/Info : UTF-8 Plain Text

Duration : 2 h 21 min

Bit rate : 55 b/s

Count of elements : 1625

Stream size : 56.9 KiB (0%)

Title : SDH

Language : English

Default : No

Forced : No



Menu

00:00:00.000 : en:00:00:00.000

00:01:40.100 : en:00:01:40.100

00:06:36.229 : en:00:06:36.229

00:12:45.932 : en:00:12:45.932

00:14:52.517 : en:00:14:52.517

00:16:12.513 : en:00:16:12.513

00:18:56.218 : en:00:18:56.218

00:23:50.387 : en:00:23:50.387

00:28:50.729 : en:00:28:50.729

00:31:21.838 : en:00:31:21.838

00:38:50.161 : en:00:38:50.161

00:44:45.725 : en:00:44:45.725

00:47:37.813 : en:00:47:37.813

00:49:39.935 : en:00:49:39.935

00:53:43.345 : en:00:53:43.345

00:57:28.403 : en:00:57:28.403

01:01:23.722 : en:01:01:23.722

01:03:23.758 : en:01:03:23.758

01:07:10.985 : en:01:07:10.985

01:11:53.476 : en:01:11:53.476

01:19:10.079 : en:01:19:10.079

01:22:29.945 : en:01:22:29.945

01:27:29.202 : en:01:27:29.202

01:30:13.366 : en:01:30:13.366

01:34:19.028 : en:01:34:19.028

01:36:57.228 : en:01:36:57.228

01:42:24.472 : en:01:42:24.472

01:45:40.334 : en:01:45:40.334

01:50:03.597 : en:01:50:03.597

01:55:33.343 : en:01:55:33.343

02:00:07.409 : en:02:00:07.409

02:03:16.055 : en:02:03:16.055

02:06:02.513 : en:02:06:02.513

02:08:42.924 : en:02:08:42.924

02:09:47.405 : en:02:09:47.405



SCREENSHOT



ORARIO: SEMPRE ATTIVO

BANDA: 300KB

Credits PirateMKV




SCREENSHOT
Internal Files
25.75 GB Harry Potter e il prigioniero di Azkaban (2004) BDRip 2160p HEVC ENG DTS-X 7.1 ITA ENG AC3 PirateMKV.mkv

1. udp://9.rarbg.com:2710/announce

2. udp://tracker.opentrackr.org:1337/announce

3. udp://tracker.pirateparty.gr:6969/announce

4. udp://tracker.leechers-paradise.org:6969/announce

5. udp://tracker.coppersurfer.tk:6969/announce

6. udp://tracker.zer0day.to:1337/announce

TOPlist