18+ In Search Of Fellini 2017 DVDRip x264 AAC LLG

DOWNLOAD TORRENT DOWNLOAD
Download via magnet link
Added January 29 2018 in Movies > Adventure
Verified
Size : 728.3 MB
Seeds : 1 , Peers : 2 updated 3 weeks ago (new update strongly recommended) Refresh Leechers
Hash code : bbf8c2d3b22c76f04eb1ff1c1bebf534878c9aa8
******************************Thumbnail:**********************



SCREENSHOT



******************************Screenshots:********************



Screenshot 1



Screenshot 2



Screenshot 3



Screenshot 4



Screenshot 5



Screenshot 6



Screenshot 7



Screenshot 8



Screenshot 9



Screenshot 0



**************************************************************



Complete name : 18+.In.Search.Of.Fellini.2017.DVDRip.x264.AAC.LLG.mp4

Format : MPEG-4

Format profile : Base Media

Codec ID : isom (isom/iso2/avc1/mp41)

File size : 717 MiB

Duration : 1 h 43 min

Overall bit rate : 967 kb/s

Description : {name}

Writing application : Lavf57.56.101



Video

ID : 1

Format : AVC

Format/Info : Advanced Video Codec

Format profile : [email protected]

Format settings : CABAC / 4 Ref Frames

Format settings, CABAC : Yes

Format settings, RefFrames : 4 frames

Codec ID : avc1

Codec ID/Info : Advanced Video Coding

Duration : 1 h 43 min

Bit rate : 900 kb/s

Width : 720 pixels

Height : 302 pixels

Display aspect ratio : 2.40:1

Frame rate mode : Constant

Frame rate : 23.976 (23976/1000) FPS

Color space : YUV

Chroma subsampling : 4:2:0

Bit depth : 8 bits

Scan type : Progressive

Bits/(Pixel*Frame) : 0.173

Stream size : 664 MiB (93%)



Audio

ID : 2

Format : AAC

Format/Info : Advanced Audio Codec

Format profile : LC

Codec ID : mp4a-40-2

Duration : 1 h 43 min

Bit rate mode : Constant

Bit rate : 64.6 kb/s

Channel(s) : 2 channels

Channel positions : Front: L R

Sampling rate : 48.0 kHz

Frame rate : 46.875 FPS (1024 SPF)

Compression mode : Lossy

Stream size : 47.9 MiB (7%)

Language : English

Default : Yes

Alternate group : 1
18+.In.Search.Of.Fellini.2017.DVDRip.x264.AAC.LLG
Sample.mp4   10.02 MB
18+.In.Search.Of.Fellini.2017.DVDRip.x264.AAC.LLG.mp4   717.01 MB

1. udp://tracker.zer0day.to:1337/announce

2. udp://tracker.coppersurfer.tk:6969/announce

3. udp://tracker.leechers-paradise.org:6969/announce

4. udp://tracker.pirateparty.gr:6969/announce

5. udp://9.rarbg.com:2710/announce

6. udp://tracker.openbittorrent.com:80/announce

7. udp://tracker.opentrackr.org:1337/announce

TOPlist