Outlander 2008 720p BRRIp x264 Dual Audio [Hindi - English 2 0] ESub

DOWNLOAD TORRENT DOWNLOAD
Download via magnet link
Added November 20 2017 in Movies > Sci-Fi
Verified
Size : 856.3 MB
Seeds : 4 , Peers : 46 updated 2 months ago (new update strongly recommended) Refresh Leechers
Hash code : d6ea13117b2db615ddc6f7e6e5caa286cc1b4972


SCREENSHOT



General

Format : Matroska

Format version : Version 4 / Version 2

File size : 856 MiB

Duration : 1 h 54 min

Overall bit rate : 1 040 kb/s



Video

ID : 1

Format : AVC

Format/Info : Advanced Video Codec

Format profile : [email protected]

Format settings : CABAC / 11 Ref Frames

Format settings, CABAC : Yes

Format settings, RefFrames : 11 frames

Codec ID : V_MPEG4/ISO/AVC

Duration : 1 h 54 min

Bit rate : 814 kb/s

Width : 1 280 pixels

Height : 544 pixels

Display aspect ratio : 2.35:1

Frame rate mode : Constant

Frame rate : 24.000 FPS

Color space : YUV

Chroma subsampling : 4:2:0

Bit depth : 8 bits

Scan type : Progressive

Bits/(Pixel*Frame) : 0.049

Stream size : 669 MiB (78%)

Writing library : x264 core 125 r2200 999b753

Default : Yes

Forced : No



Audio #1

ID : 2

Format : AAC

Format/Info : Advanced Audio Codec

Format profile : LC

Codec ID : A_AAC-2

Duration : 1 h 54 min

Bit rate : 128 kb/s

Channel(s) : 2 channels

Channel positions : Front: L R

Sampling rate : 44.1 kHz

Frame rate : 43.066 FPS (1024 SPF)

Compression mode : Lossy

Delay relative to video : 13 ms

Stream size : 105 MiB (12%)

Language : Hindi

Default : Yes

Forced : No



Audio #2

ID : 3

Format : AAC

Format/Info : Advanced Audio Codec

Format profile : LC

Codec ID : A_AAC-2

Duration : 1 h 54 min

Bit rate : 96.0 kb/s

Channel(s) : 2 channels

Channel positions : Front: L R

Sampling rate : 48.0 kHz

Frame rate : 46.875 FPS (1024 SPF)

Compression mode : Lossy

Stream size : 79.0 MiB (9%)

Language : English

Default : No

Forced : No



Text

ID : 4

Format : UTF-8

Codec ID : S_TEXT/UTF8

Codec ID/Info : UTF-8 Plain Text

Duration : 1 h 45 min

Bit rate : 18 b/s

Count of elements : 636

Stream size : 14.3 KiB (0%)

Default : Yes

Forced : No





SCREENSHOT

SCREENSHOT

SCREENSHOT

SCREENSHOT

SCREENSHOT

SCREENSHOT

SCREENSHOT

SCREENSHOT

Outlander 2008 720p BRRIp x264 Dual Audio [Hindi - English 2.0] ESub
Outlander 2008 720p BRRIp x264 Dual Audio [Hindi - English 2.0] ESub .mkv   855.54 MB

1. udp://glotorrents.pw:6969/announce

2. udp://11.rarbg.com:80/announce

3. udp://torrent.gresille.org:80/announce

4. http://exodus.desync.com:6969/announce

5. udp://tracker.openbittorrent.com:80

6. udp://tracker.coppersurfer.tk:6969/announce

7. udp://tracker.ilibr.org:80/announce

8. udp://tracker.ilibr.org:6969/announce

9. udp://tracker.opentrackr.org:1337/announce

10. udp://tracker.zer0day.to:1337/announce

11. udp://p4p.arenabg.com:1337/announce

12. udp://p4p.arenabg.ch:1337/announce

13. udp://ipv4.tracker.harry.lu:80/announce

14. udp://explodie.org:6969/announce

15. udp://9.rarbg.to:2710/announce

16. udp://9.rarbg.com:2710/announce

17. udp://9.rarbg.me:2710/announce

18. udp://eddie4.nl:6969/announce

19. udp://tracker.leechers-paradise.org:6969/announce

name size seeds peers added
Outlander 2008 720p BRRip x264 MP4 AAC-CC posted in movies > action 2.82 GB 3 2 2 years
Outlander 2008 720p BRrip Xvid Ac3-MiLLENiUM posted in movies > action 1.78 GB 3 0 2 years
TOPlist