Welcome to Willits 2017 HDRip x264 AC3

DOWNLOAD TORRENT DOWNLOAD
Download via magnet link
Added November 16 2017 in Movies > Sci-Fi
Verified
Size : 787.3 MB
Seeds : 3 , Peers : 2 updated 2 months ago (new update strongly recommended) Refresh Leechers
Hash code : b6e6e97accd12dc06bbf231486bc20a42686f8a2


SCREENSHOT



General

Format : Matroska

Format version : Version 4 / Version 2

File size : 787 MiB

Duration : 1 h 24 min

Overall bit rate : 1 308 kb/s



Video

ID : 1

Format : AVC

Format/Info : Advanced Video Codec

Format profile : [email protected]

Format settings : CABAC / 4 Ref Frames

Format settings, CABAC : Yes

Format settings, RefFrames : 4 frames

Codec ID : V_MPEG4/ISO/AVC

Duration : 1 h 24 min

Bit rate : 1 200 kb/s

Width : 720 pixels

Height : 400 pixels

Display aspect ratio : 16:9

Frame rate mode : Constant

Frame rate : 23.976 (23976/1000) FPS

Color space : YUV

Chroma subsampling : 4:2:0

Bit depth : 8 bits

Scan type : Progressive

Bits/(Pixel*Frame) : 0.174

Stream size : 709 MiB (90%)

Writing library : x264 core 148 r2643 5c65704

Default : Yes

Forced : No



Audio

ID : 2

Format : AC-3

Format/Info : Audio Coding 3

Format settings, Endianness : Big

Codec ID : A_AC3

Duration : 1 h 24 min

Bit rate mode : Constant

Bit rate : 128 kb/s

Channel(s) : 2 channels

Channel positions : Front: L R

Sampling rate : 44.1 kHz

Frame rate : 28.711 FPS (1536 SPF)

Bit depth : 16 bits

Compression mode : Lossy

Stream size : 77.0 MiB (10%)

Language : English

Service kind : Complete Main

Default : Yes

Forced : No









SCREENSHOT

SCREENSHOT

SCREENSHOT

SCREENSHOT

SCREENSHOT

SCREENSHOT

Welcome to Willits 2017 HDRip x264 AC3
Welcome to Willits 2017 HDRip x264 AC3.mkv   786.9 MB

1. udp://11.rarbg.com:80/announce

2. udp://torrent.gresille.org:80/announce

3. udp://9.rarbg.com:2710/announce

4. http://exodus.desync.com:6969/announce

5. http://ipv4.tracker.harry.lu/announce

6. http://ipv4.tracker.harry.lu:80/announce

7. udp://tracker.coppersurfer.tk:6969/announce

8. udp://tracker.ilibr.org:6969/announce

9. udp://tracker.ilibr.org:80/announce

10. udp://tracker.opentrackr.org:1337/announce

11. udp://zer0day.to:1337/announce

12. udp://tracker.zer0day.to:1337/announce

13. udp://tracker.leechers-paradise.org:6969/announce

14. udp://explodie.org:6969/announce

15. udp://eddie4.nl:6969/announce

16. udp://glotorrents.pw:6969/announce

17. udp://tracker.pubt.net:2710/announce

18. udp://tracker.openbittorrent.com:80/announce

19. udp://open.demonii.com:1337/announce

No related torrents found!

TOPlist