England.Is.Mine.2017.HDRip.XviD.AC3-EVO

Download via magnet link
Added September 19 2017 in Movies > Misc
Verified
Size : 1.38 GB
Seeds : 0 , Peers : 0 updated 9 months ago (new update strongly recommended) Refresh Leechers
Hash code : f85e1ec7758e4fb91d87944d08ac2a7aa56e27df
England.Is.Mine.2017.HDRip.XviD.AC3-EVO

ImDb: http://www.imdb.com/title/tt3717804

SCREENSHOT

Complete name : England.Is.Mine.2017.HDRip.XviD.AC3-EVO.avi
Format : AVI
Format/Info : Audio Video Interleave
File size : 1.32 GiB
Duration : 1 h 34 min
Overall bit rate : 1 998 kb/s
Writing library : VirtualDub build 32593/release

Video
ID : 0
Format : MPEG-4 Visual
Format profile : Advanced [email protected]
Format settings, BVOP : 2
Format settings, QPel : No
Format settings, GMC : No warppoints
Format settings, Matrix : Default (H.263)
Muxing mode : Packed bitstream
Codec ID : XVID
Codec ID/Hint : XviD
Duration : 1 h 34 min
Bit rate : 1 605 kb/s
Width : 720 pixels
Height : 304 pixels
Display aspect ratio : 2.35:1
Frame rate : 23.976 (24000/1001) FPS
Color space : YUV
Chroma subsampling : 4:2:0
Bit depth : 8 bits
Scan type : Progressive
Compression mode : Lossy
Bits/(Pixel*Frame) : 0.306
Stream size : 1.06 GiB (80%)
Writing library : XviD 66

Audio
ID : 1
Format : AC-3
Format/Info : Audio Coding 3
Format settings, Endianness : Big
Codec ID : 2000
Duration : 1 h 34 min
Bit rate mode : Constant
Bit rate : 384 kb/s
Channel(s) : 6 channels
Channel positions : Front: L C R, Side: L R, LFE
Sampling rate : 48.0 kHz
Frame rate : 31.250 FPS (1536 spf)
Bit depth : 16 bits
Compression mode : Lossy
Stream size : 260 MiB (19%)
Alignment : Aligned on interleaves
Interleave, duration : 42 ms (1.00 video frame)
Interleave, preload duration : 512 ms
Service kind : Complete Main

SCREENSHOT

SCREENSHOT

Click To View Screenshot

Click To View Screenshot

Click To View Screenshot
Internal Files
1.32 GB England.Is.Mine.2017.HDRip.XviD.AC3-EVO.avi

749 Byte England.Is.Mine.2017.HDRip.XviD.AC3-EVO.nfo

57.29 MB sample.avi

1. udp://9.rarbg.com:2710/announce

2. udp://tracker.opentrackr.org:1337/announce

3. udp://tracker.pirateparty.gr:6969/announce

4. udp://tracker.leechers-paradise.org:6969/announce

5. udp://tracker.coppersurfer.tk:6969/announce

6. udp://tracker.zer0day.to:1337/announce

name size seeds peers added
England Is Mine 2017 HDRip XviD AC3-EVO posted in movies > misc 1.38 GB 0 0 9 months
England.Is.Mine.2017.HDRip.XviD.AC3-EVO posted in movies > misc 1.38 GB 0 0 9 months
TOPlist